<?xml version="1.0" standalone="no"?>
<!DOCTYPE svg PUBLIC "-//W3C//DTD SVG 1.1//EN" "http://www.w3.org/Graphics/SVG/1.1/DTD/svg11.dtd" >
<svg xmlns="http://www.w3.org/2000/svg" xmlns:xlink="http://www.w3.org/1999/xlink" version="1.1">
<metadata></metadata>
<defs>
<font id="rebel_bonesregular" horiz-adv-x="1187" >
<font-face units-per-em="2048" ascent="1638" descent="-410" />
<missing-glyph horiz-adv-x="921" />
<glyph horiz-adv-x="0" />
<glyph horiz-adv-x="682" />
<glyph unicode=" "  horiz-adv-x="921" />
<glyph unicode="&#x09;" horiz-adv-x="921" />
<glyph unicode="&#xa0;" horiz-adv-x="921" />
<glyph unicode="!" horiz-adv-x="675" d="M2 848q12 59 55 101t103 42q76 0 131 -61h2q55 61 131 61q59 0 102 -42t56 -101l-7 -4q-33 29 -79 28q-98 0 -99 -116v-129q0 -125 127 -164v-8q-127 -39 -127 -164v-60q0 -68 9.5 -123t17.5 -75l8 -23l-2 -4q-82 0 -135 57h-4q-53 -57 -135 -57l-2 4q32 69 32 221v60 q0 125 -127 164v8q127 39 127 164v129q0 117 -98 116q-47 0 -80 -28zM147 -276.5q0 63.5 40 104.5t105.5 41t105.5 -41t40 -104.5t-41 -104.5q-39 -41 -104.5 -41t-105.5 41t-40 104.5z" />
<glyph unicode="&#x22;" horiz-adv-x="1705" d="M393 1249q0 61 32 100t87.5 39t87 -38.5t31.5 -100.5q0 -33 -35 -180.5t-51 -292.5h-66q-16 145 -51 292.5t-35 180.5zM729 1245q0 61 32 100t87.5 39t87 -38.5t31.5 -100.5q0 -33 -35 -180.5t-51 -292.5h-66q-16 145 -51 292.5t-35 180.5z" />
<glyph unicode="#" horiz-adv-x="1433" d="M2 369q0 66 57 118v5q-57 53 -57 118l4 2q70 -35 221 -34h80l68 253h-45q-68 0 -123 -8t-78 -16l-20 -10l-5 2q0 66 58 119v4q-57 53 -58 118l5 2q70 -35 221 -34h90l49 180q18 68 26.5 123t6.5 78v20l2 4q61 0 94 -57h4q76 57 146 57l2 -4q-61 -70 -103 -221l-49 -180 h287l49 180q18 68 26.5 123t8.5 78l-2 20l2 4q61 0 94 -57h4q76 57 145 57l2 -4q-61 -70 -102 -221l-49 -180h35q68 0 123 8t75 16l23 10l4 -2q0 -66 -57 -118v-4q57 -53 57 -119l-4 -2q-70 35 -221 34h-80l-68 -253h45q68 0 123.5 8t75.5 16l23 10l4 -2q0 -66 -58 -118v-5 q57 -53 58 -118l-4 -2q-70 35 -222 34h-92l-47 -180q-18 -68 -26.5 -123t-8.5 -78l2 -20l-2 -4q-61 0 -94 57h-4q-76 -57 -145 -57l-3 4q62 69 103 221l47 180h-287l-47 -180q-18 -68 -26.5 -123t-6.5 -78v-20l-2 -4q-61 0 -94 57h-4q-76 -57 -145 -57l-2 4q61 70 102 221 l47 180h-33q-68 0 -123 -8t-77 -16l-21 -10zM485 578h287l68 253h-287z" />
<glyph unicode="$" horiz-adv-x="972" d="M-2 72q0 74 57 118v3q-20 37 -20 83q0 61 46 107.5t107 52.5l5 -8q-33 -29 -33 -76q0 -86 63.5 -135t167.5 -53v459q-70 43 -106.5 67.5t-93 70.5t-86 86t-53 97t-23.5 121q0 154 102 253t260 103v11q0 68 -11 123t-22 75l-12 23l2 4q68 0 98 -37h5q31 37 98 37l2 -4 q-45 -70 -45 -221v-21q23 -4 52.5 -12t49 -12.5t35.5 -4.5q82 0 82 66q0 14 -6 35l6 4q98 -41 98 -129q0 -72 -55 -105v-2q20 -37 20 -82q0 -55 -45 -91t-102 -36l-2 9q27 33 27 75q0 49 -45.5 84t-114.5 41v-463q68 -43 104.5 -66.5t94 -69.5t87 -86t53 -97t23.5 -121 q0 -147 -104.5 -246.5t-257.5 -107.5v-23q0 -68 11 -123t22 -77l12 -21l-2 -4q-68 0 -98 37h-5q-31 -37 -98 -37l-2 4q45 69 45 221v29q-43 4 -110.5 20.5t-92.5 16.5q-37 0 -61.5 -19.5t-24.5 -50.5q0 -14 9 -37l-7 -4q-41 18 -73.5 58.5t-32.5 87.5zM246 1065 q0 -100 145 -203v383q-145 -35 -145 -180zM506 176q145 43 145 176q0 94 -145 197v-373z" />
<glyph unicode="%" horiz-adv-x="1802" d="M4 1026v8q94 29 94 123q0 127 79 209t204 82t204 -82t79 -209q0 -94 94 -123v-8q-94 -29 -94 -123q0 -127 -79 -209t-204 -82t-204 82t-79 209q0 94 -94 123zM254 903q0 -74 34 -114.5t93 -40.5t93 40.5t34 114.5q0 94 -94 123v8q94 29 94 123q0 74 -34 115t-93 41 t-93 -41t-34 -115q0 -94 94 -123v-8q-94 -29 -94 -123zM262 10q80 88 164 221l623 983q37 59 65.5 114.5t38.5 80.5l10 27l2 4q20 0 42 -17.5t32 -40.5h4q53 57 146 58l2 -4q-80 -88 -164 -222l-623 -983q-37 -59 -65.5 -114.5t-38.5 -79.5l-11 -27l-2 -4q-20 0 -41.5 17.5 t-31.5 39.5h-4q-53 -57 -146 -57zM895 412v8q94 29 94 123q0 127 79 209t204 82t203.5 -82t78.5 -209q0 -94 95 -123v-8q-94 -29 -95 -123q0 -127 -78.5 -209t-203.5 -82t-204 82t-79 209q0 94 -94 123zM1145 289q0 -74 33.5 -115t93 -41t93.5 41t34 115q0 94 -94 123v8 q94 29 94 123q0 74 -34 114.5t-93.5 40.5t-93 -41t-33.5 -114q0 -94 94 -123v-8q-94 -29 -94 -123z" />
<glyph unicode="&#x26;" horiz-adv-x="1085" d="M6 375q10 6 21 18q10 10 18 26.5t14 43.5q8 31 16.5 52.5t14.5 35.5q8 16 14 29q12 16 23 32q10 14 19.5 28.5t17.5 25.5q18 25 26.5 35t12.5 15l8 10t16 22q-10 20 -18 40q-8 16 -15.5 34t-11.5 30q-6 10 -12 24.5t-10 26.5q-6 14 -10 29l-23 72q-8 27 -16.5 45 t-14.5 30q-8 14 -14 23q10 10 20 22q10 10 20.5 25.5t20.5 38.5q8 20 13.5 29.5t8.5 14.5t5 9t6 16q33 74 75 110t81 50q45 16 90 15q29 -2 59 -11q27 -6 55.5 -16t53.5 -29q23 -20 42 -44.5t32 -47.5q14 -27 24 -53q2 -14 8 -31q4 -14 9.5 -34.5t11.5 -43.5q6 -25 12 -38 t12 -21q8 -8 15 -12q-16 -8 -29 -19q-10 -10 -22.5 -23.5t-18.5 -29.5q-8 -16 -16 -32.5t-17 -31.5q-8 -16 -20 -32q-8 -10 -19 -21q-20 -20 -63 -57q-20 -18 -32.5 -28.5t-19.5 -18.5t-11.5 -16.5t-6.5 -24.5q-4 -16 5.5 -33.5t19.5 -34.5q12 -18 31 -35q8 -12 18 -26 q10 -12 21.5 -27.5t27.5 -30.5q16 -16 30.5 -21t24.5 -7q12 -2 23 2q4 12 8 26q6 20 2 76q-2 25 -11 43.5t-19 30.5q-12 14 -27 25q0 6 8 14q6 4 17.5 9t29.5 5q16 0 30.5 -10t24.5 -23q10 -14 21 -30q6 4 18 10q10 4 28.5 7t49.5 5q29 2 45.5 -6t26.5 -18q10 -12 16 -29 q-14 2 -30 -2q-14 -4 -34 -15.5t-40 -37.5q-20 -25 -31.5 -40.5t-17.5 -25.5q-8 -10 -9 -14q-12 -12 -20 -33q-8 -16 -14 -40.5t-4 -55.5q14 -59 34 -84q8 -12 21 -19q12 -4 22 -4t21.5 4t25.5 19q14 14 19.5 30.5t7.5 30.5q2 17 -2 33q23 -25 37 -57q12 -29 18.5 -68 t-4.5 -92q-12 -53 -27.5 -81t-29.5 -40q-16 -14 -35 -16q-14 -4 -33 -2q-16 2 -36.5 11t-45.5 32t-39 37l-24 24q-10 8 -16 14q-14 -35 -43 -63q-25 -25 -71 -48.5t-120 -31.5q-76 -10 -135 15.5t-100 60.5q-49 39 -86 94q-10 16 -19 39q-8 16 -17.5 39.5t-15.5 48.5 q-8 20 -16 33.5t-16 23.5t-19 17zM215 371q-2 -25 2 -47.5t10 -38.5q6 -20 15 -39q12 -29 30 -53q16 -23 39 -45.5t54 -36.5q31 -16 54 -16.5t40 3.5q21 7 35 19q18 14 32 35q12 16 21.5 36.5t7.5 42.5q-4 16 -9 28.5t-9 23.5q-6 10 -13 18l-194 277q-2 4 -8 6q-12 4 -37 -6 q-16 -8 -25.5 -21.5t-15.5 -26.5q-8 -16 -11 -32q-4 -18 -8 -39q-4 -16 -7 -40t-3 -48zM269.5 1004.5q-5.5 -15.5 4.5 -35.5q8 -20 15.5 -34.5t13.5 -25.5q8 -12 12 -20q12 -20 27 -35q12 -12 26.5 -23.5t28.5 -9.5q12 0 26.5 10.5t27.5 20.5q14 12 28 31q12 18 23 39 q10 16 17 33.5t7 33.5t-7 25.5t-15 17.5q-10 8 -23 15q18 6 33 16q12 10 24.5 22.5t16.5 32.5q4 18 3 34.5t-1 29.5q-2 14 -2 24q-6 35 -25 60q-16 23 -42.5 40t-71.5 13t-71 -21.5t-40 -37.5q-16 -23 -22 -54q-4 -6 -7 -14q-6 -16 -6 -59q0 -23 6.5 -38.5t14.5 -25.5 t22 -18q-18 -8 -28 -21q-10 -10 -15.5 -25.5z" />
<glyph unicode="'" horiz-adv-x="348" d="M61 1329q0 61 32 100t87.5 39t87 -38.5t31.5 -100.5q0 -33 -35 -180.5t-51 -292.5h-66q-16 145 -51 292.5t-35 180.5z" />
<glyph unicode="(" horiz-adv-x="634" d="M0 559q0 516 379 944q18 -12 29.5 -39.5t11.5 -44.5l4 -4q78 8 123 -20v-4q-160 -119 -256 -345.5t-96 -486.5t96 -486.5t256 -344.5v-4q-45 -29 -123 -21l-4 -4q0 -16 -11.5 -44t-29.5 -40q-379 428 -379 944z" />
<glyph unicode=")" horiz-adv-x="634" d="M2 -274q160 119 256 345t96 486t-96 486.5t-256 345.5v4q45 29 123 20l4 4q0 16 11.5 44t29.5 40q379 -428 379 -944t-379 -944q-18 12 -29.5 40t-11.5 44l-4 4q-78 -8 -123 20v5z" />
<glyph unicode="*" horiz-adv-x="929" d="M2 1077q14 43 57 66l2 4q-25 45 -10 84l2 2q37 -29 125 -57l139 -46v146q0 41 -4 74.5t-8 48.5l-4 14l2 2q41 0 78 -37h4q35 35 80 35l2 -2q-18 -43 -18 -135v-146l139 46q39 12 70.5 26.5t43.5 22.5l11 8l2 -2q14 -39 -10 -84l2 -4q43 -23 57 -66l-2 -2q-47 4 -133 -24 l-140 -45l86 -119q25 -33 47.5 -58.5t34.5 -33.5l11 -9v-4q-33 -25 -84 -16l-2 -2q-12 -51 -45 -76l-2 2q-12 45 -66 119l-86 119l-86 -119q-25 -33 -41 -62.5t-20 -41.5l-5 -15l-2 -2q-33 25 -45 76l-2 2q-51 -8 -84 16v4q39 25 92 101l86 119l-139 45q-39 12 -71.5 18 t-47.5 6h-14z" />
<glyph unicode="+" horiz-adv-x="1310" d="M6 582q0 66 57 118v5q-57 53 -57 118l4 2q70 -35 221 -34h246v243q0 68 -8 123t-16 76l-11 22l2 5q66 0 119 -58h4q53 57 119 58l2 -5q-35 -70 -35 -221v-243h244q68 0 123 8t76 16l22 10l4 -2q0 -66 -57 -118v-5q57 -53 57 -118l-4 -2q-70 35 -221 34h-244v-245 q0 -68 8.5 -123.5t16.5 -77.5l10 -21l-2 -4q-66 0 -119 58h-4q-53 -57 -119 -58l-2 4q35 70 35 222v245h-246q-68 0 -123 -8t-77 -16l-21 -10z" />
<glyph unicode="," horiz-adv-x="481" d="M-72 145.5q0 63.5 41 104.5t104 41q72 0 121 -55.5t49 -165.5q0 -121 -72.5 -215.5t-201.5 -130.5l-14 32q145 102 145 246q-14 -2 -27 -2q-63 0 -104 41t-41 104.5z" />
<glyph unicode="-" horiz-adv-x="667" d="M4 526q0 74 57 127v4q-57 53 -57 127l4 2q70 -35 221 -34h39q68 0 123 9t76 17l22 8l5 -2q0 -74 -58 -127v-4q57 -53 58 -127l-5 -2q-70 35 -221 35h-39q-68 0 -123 -9t-77 -18l-21 -8z" />
<glyph unicode="." horiz-adv-x="409" d="M2 129q0 55 35 94t84 39t84 -39t35 -94t-35 -93t-84 -38t-84 38t-35 93z" />
<glyph unicode="/" horiz-adv-x="1300" d="M6 4q80 88 164 221l623 983q37 59 65.5 114.5t38.5 82.5l10 25l2 4q20 0 42 -17.5t32 -40.5h4q53 57 146 58l2 -4q-80 -88 -164 -222l-623 -983q-37 -59 -65.5 -114.5t-38.5 -81.5l-11 -25l-2 -4q-20 0 -41.5 17.5t-31.5 39.5h-4q-53 -57 -146 -57z" />
<glyph unicode="0" horiz-adv-x="1146" d="M-2 725v8q127 39 127 164q0 270 106.5 414.5t299 144.5t299 -144.5t106.5 -414.5q0 -125 127 -164v-8q-127 -39 -127 -164q0 -270 -106.5 -414.5t-299 -144.5t-299 144.5t-106.5 414.5q0 125 -127 164zM352 561q0 -360 178.5 -360t178.5 360q0 125 -127 164v8 q127 39 127 164q0 360 -178.5 360t-178.5 -360q0 -125 127 -164v-8q-127 -39 -127 -164z" />
<glyph unicode="1" horiz-adv-x="819" d="M2 135q80 0 139 27q25 12 48.5 30.5t40 47t22.5 67.5t0 92q-14 104 -30.5 174t-33.5 111q-18 49 -34 76q29 10 51 47q20 31 36.5 92.5t20.5 169.5q2 106 -26.5 160.5t-63.5 77.5q-41 24 -94 24l481 203q-27 -25 -49 -76q-18 -43 -31.5 -120.5t-9.5 -200.5t20.5 -196 t36.5 -112q23 -45 52 -61q-27 -51 -50 -111q-20 -51 -41.5 -119.5t-33.5 -148.5q-4 -55 4 -95t23.5 -67.5t38 -45t44.5 -27.5q53 -23 127 -17q-8 -33 -26 -59q-16 -23 -46 -44.5t-81 -29.5q-53 -6 -90 1t-62 18q-29 12 -47 30q-23 -14 -49 -22q-51 -20 -133 -27 q-43 -4 -73 17.5t-48 46.5q-23 29 -33 67z" />
<glyph unicode="2" horiz-adv-x="1044" d="M8 1133q0 59 21.5 115.5t54.5 111.5q-31 16 -31 67q0 31 9.5 56.5t21.5 46t23.5 33t15.5 14.5q4 4 16 4q8 0 11.5 -22.5t13.5 -50t36.5 -53t84.5 -32.5l280 7q27 -6 60.5 -21.5t64.5 -46.5t51.5 -78t20.5 -117q0 -45 -8.5 -82.5t-22.5 -68.5q-2 0 -6 -5t-13.5 -20.5 t-26.5 -44t-44 -74.5q-59 -86 -77.5 -143t-18.5 -92q0 -43 18 -64q-25 -6 -56.5 -27.5t-63 -54t-62.5 -77.5t-53 -97q-10 -20 -20.5 -45.5t-10.5 -56.5q0 -41 25.5 -61.5t52.5 -30.5h239q4 -4 11 -4q10 0 36.5 21.5t83.5 103.5q53 78 69.5 137t16.5 94v17.5t-2 17.5 q8 2 23 2q29 0 50.5 -24.5t21.5 -96.5q0 -57 -14.5 -108.5t-34 -91t-38 -66.5t-26.5 -35q-18 -18 -37 -22q6 -18 8 -39t2 -37q0 -49 -17 -83t-36.5 -53.5t-36 -26.5t-14.5 -7q2 10 2 37q-6 66 -46 96.5t-87 30.5l-422 14q-35 4 -66.5 25.5t-31.5 80.5q0 51 17 89t36 65 l127 227q14 27 34.5 73t20.5 93q0 27 -11 41.5t-26 24.5q2 0 43 31.5t91.5 83t94.5 115t56 126.5q2 14 4 30.5t2 33.5q0 47 -12 79.5t-27.5 54t-32 32t-22.5 14.5l-174 4q-12 -4 -28.5 -17.5t-32 -36t-26.5 -56t-11 -78.5q0 -72 46 -125.5t97 -81.5q-27 -20 -66 -21 q-16 0 -52 12.5t-73.5 40t-66.5 69.5t-29 104z" />
<glyph unicode="3" horiz-adv-x="1085" d="M6 231q-2 51 13.5 88t33.5 60q23 27 49 45q-12 -35 -16 -68q-4 -29 -1 -59.5t19 -52.5q33 -43 66 -67.5t59 -37.5q31 -14 60 -20q20 -6 41 -13q16 -4 34.5 -7t32.5 1q10 -4 36 1t50 16q29 10 64 24q16 6 33 21q14 12 27.5 35.5t21.5 64.5t-6.5 73t-34.5 54q-23 25 -58 45 q23 12 43 29q16 14 30.5 34.5t19.5 49.5q4 27 -6.5 51.5t-24.5 42.5q-16 23 -39 39q-14 2 -41 4q-23 2 -63.5 0t-106.5 -8t-98.5 3t-48.5 23q-18 16 -19 41q4 18 19 29q12 10 37.5 15.5t72.5 -1.5q88 -12 135 -8q25 0 43 4q12 2 21 13q8 10 15 27.5t11 49.5q4 31 -10 56.5 t-33 44.5q-23 23 -49 39q23 18 43 41q16 20 29.5 51t15.5 72t-13 65.5t-32 38.5q-23 16 -47 23q-29 8 -51 14q-20 4 -38.5 6t-29.5 -2q-25 0 -50 -8t-46 -19q-23 -10 -45 -24q-16 -16 -27 -35q-10 -16 -18 -34.5t-4 -37.5q-2 -29 18.5 -56.5t42.5 -49.5q27 -27 62 -51 q-35 -8 -70 -9q-29 0 -59.5 9.5t-50.5 35.5q-29 43 -33 90.5t2 88.5q8 47 24 90q-14 18 -22 39q-8 16 -14.5 38.5t-1.5 45.5q4 23 13 42t21 33q13 17 31 31q2 -23 12 -45q8 -18 25.5 -37.5t48.5 -36.5q31 -16 69 -18t72 2q39 6 78 16q45 6 88 6q37 0 78 -5t70 -23t51 -39 t39 -37q18 -20 31 -41q8 -8 16 -18t18.5 -26.5t22.5 -43.5t27.5 -41t27.5 -23q14 -8 31 -12q-14 -12 -29 -26q-12 -12 -24.5 -27.5t-22.5 -34.5q-10 -18 -16 -34.5t-13 -26.5l-12 -25q-2 -8 -6 -20l-11 -27.5t-24 -40.5q-18 -29 -31.5 -45t-23.5 -27q-10 -10 -18 -14l94 -90 l90 -133l43 -86q10 -16 22.5 -28.5t22.5 -20.5q12 -8 27 -17q-23 -14 -43 -33q-16 -16 -33 -34.5t-27 -34.5q-25 -37 -43 -64.5t-29 -46.5q-14 -23 -22 -37q-10 -18 -25 -36q-12 -16 -30.5 -33t-46.5 -33q-18 -10 -50 -18.5t-63 -12.5q-37 -6 -78 -10q-29 2 -63 6 q-29 4 -68 9.5t-86 15.5q-27 4 -62.5 -9.5t-70.5 -31.5q-39 -23 -80 -49q-8 4 -10 12q-6 16 10 57q8 23 17.5 33t17.5 14q8 6 16 7q-23 10 -41 32q-16 18 -29.5 50t-15.5 83z" />
<glyph unicode="4" horiz-adv-x="1208" d="M2 549q2 18 14.5 47t26.5 55q16 31 37 66q35 55 65 106q27 43 53.5 84t41.5 64q14 20 49 69.5t69 100.5q41 59 88 129q10 14 19 33q8 16 14 36.5t8 44.5q0 23 -4 46.5t-10 42.5q-8 23 -14 38q6 0 16 -4q8 -4 21.5 -11t33.5 -23q18 -16 28.5 -31t16.5 -25q6 -12 9 -24 q4 -6 12 -13q8 -4 24.5 -8t45.5 -2q51 2 79 12q14 4 27 11q10 16 33 24q18 8 47 11.5t74 -9.5q43 -12 65.5 -34.5t32.5 -45.5q10 -27 10 -55q-8 8 -22 16q-12 6 -36 10.5t-61 0.5t-59 -20.5t-33 -37.5q-14 -23 -18 -51l-8 -590q12 -14 34 -22q18 -6 49 -3t78 25 q47 23 71 39.5t34 30.5q10 15 8 29q8 -29 10 -54q2 -23 -4 -47t-22 -45q-16 -20 -28.5 -29.5t-20.5 -13.5q-8 -6 -17 -6l-160 -27q-20 -18 -30 -53q-10 -29 -13.5 -76t13.5 -118q16 -72 45.5 -93.5t60.5 -17.5q37 4 76 33q-4 -39 -18 -70q-12 -27 -35 -49t-64 -27 q-41 -4 -71.5 1.5t-53.5 11.5q-25 8 -43 18q-8 -12 -26 -22q-16 -10 -41 -17.5t-64 -7.5q-39 -2 -62.5 13.5t-37.5 35.5q-16 23 -25 51q4 -6 15 -6q10 0 25.5 4t43.5 21q27 14 40.5 29.5t17.5 25.5q6 12 4 25v268l-529 25q-16 0 -28 8q-10 6 -19.5 16t-7.5 31zM212 613 q1 -13 1 -17v-4h371v528q0 20 -4 35q-4 12 -12.5 21.5t-24.5 5.5t-29.5 -14.5t-24.5 -20.5q-10 -12 -20 -27l-236 -364q-6 -8 -10 -23q-10 -27 -10 -78q-2 -29 -1 -42z" />
<glyph unicode="5" horiz-adv-x="1054" d="M6 299q8 47 23 84q16 43 43 82q-8 -37 -11 -72q-2 -29 2.5 -61.5t20.5 -57.5q16 -27 41 -47t47 -37q27 -18 55 -32q14 -12 37 -23q18 -10 46 -18t63 -11q35 -2 67.5 13.5t57.5 36.5q29 23 53 53q6 8 12 24q4 14 10.5 38t10.5 59t-5.5 63.5t-23.5 50.5q-16 25 -37 48 q16 12 31 30q12 16 22.5 39t12.5 55q0 33 -10.5 62t-24.5 49q-16 23 -35 43q-23 23 -51 35q-25 10 -60.5 14t-78.5 -12q-39 -14 -90.5 -29.5t-98.5 -29.5q-53 -16 -110 -31l32 51l9 37l6 622h477q6 0 16 5q10 4 27.5 10t46.5 20q27 12 36 34t13 44q2 25 -2 53q20 -2 37 -10 q14 -8 26.5 -24.5t16.5 -47.5q4 -33 -3 -60.5t-18 -47.5q-10 -23 -26 -43q18 -20 33 -47q10 -23 18 -55.5t4 -73.5q-4 -43 -24.5 -71t-44.5 -44q-29 -20 -64 -29q2 20 0 43q-2 18 -7 40t-18 42q-14 20 -28.5 28.5t-24.5 12.5q-14 4 -26 0l-349 2l-12 -315h84l92 14 q25 4 58 4q29 0 65.5 -4t79.5 -14q43 -14 80 -38t65 -48q33 -29 60 -59q14 -16 26 -35q10 -16 22.5 -35t20.5 -35q8 -20 24.5 -37.5t33.5 -32.5q18 -16 39 -30q-14 -12 -27 -29q-10 -14 -23.5 -33.5t-21.5 -46.5q-8 -25 -17.5 -55.5t-17.5 -56.5l-20 -62q-14 -35 -37 -67 q-18 -29 -46 -59t-63 -52q-35 -23 -87 -35t-103 -20q-59 -8 -123 -13q-8 0 -21 -4q-23 -6 -63 -33q-33 -20 -47 -38.5t-21 -32.5q-8 -18 -6 -33q-12 2 -22 10q-10 6 -20.5 16.5t-20.5 30.5q-10 18 -12.5 40t2.5 40q4 23 10 41q-23 2 -43 21q-16 14 -34.5 43.5t-31.5 83.5 q-12 53 -4 100z" />
<glyph unicode="6" horiz-adv-x="1146" d="M6 713q10 6 25 20q12 12 28.5 35t38.5 61q23 37 40.5 85.5t27.5 89.5q12 49 22 100q25 88 68 156q18 29 43 57.5t57.5 51t71.5 37.5t88 17q31 0 56.5 1t45.5 1q23 0 44 2q14 -2 32 3q16 4 36 11t42 27q23 18 36 36t21 34q8 18 15 35q20 -10 35 -27q12 -16 22 -39.5 t12 -62.5t-8 -63.5t-24 -41.5q-16 -18 -37 -28q14 0 26 -13q10 -12 21.5 -39.5t21.5 -84.5q10 -55 -15.5 -90t-57.5 -56q-39 -23 -90 -33q16 23 24 56q8 29 8 66.5t-16 88.5q-16 49 -36.5 76t-39.5 39q-23 14 -45 14q-45 2 -90 -8q-39 -10 -81 -34.5t-71 -73.5 q-31 -49 -42 -115t-13 -125q-2 -68 4 -139q18 33 54 55q29 20 77.5 36.5t126.5 12.5q80 -4 131.5 -29.5t79.5 -54.5q35 -35 51 -78q8 -23 17 -45q8 -20 18.5 -44.5t22.5 -49.5q10 -25 26.5 -47.5t32.5 -38.5q18 -20 35 -39q-14 -18 -29 -41q-12 -20 -25.5 -45.5t-21.5 -54.5 q-25 -78 -48 -127t-28 -53q-27 -47 -69 -84q-37 -35 -97.5 -66t-152.5 -47q-66 0 -118 13.5t-93 36t-71.5 53t-53.5 61.5q-53 72 -78 166q-6 31 -14 63q-6 29 -13.5 62.5t-11.5 66.5q-4 37 -19 71t-32 60q-20 31 -43 60zM350 502q-2 -49 6 -94q6 -43 17 -86q10 -37 27.5 -78 t48.5 -72t62.5 -38t57.5 -3q31 4 62 21q23 16 41 38q16 20 29.5 50t15.5 71t-9.5 74t-25.5 55q-16 25 -39 45q25 29 43 60q16 27 25.5 60.5t5.5 70.5q-4 35 -20.5 57.5t-34.5 34.5q-23 14 -48 18q-47 8 -88 2q-37 -4 -74.5 -24.5t-60.5 -69.5q-23 -51 -32 -101t-9 -91z" />
<glyph unicode="7" horiz-adv-x="1208" d="M0 1401q0 16 5 37.5t11 40.5q9 22 17 45q20 -31 45 -58q23 -23 50.5 -44t57.5 -25q31 -6 64 -1t59 15q31 10 62 25q23 4 49 10q51 10 121 10q35 -2 72.5 -14t70.5 -29q37 -18 74 -41q25 20 53 39q23 14 53.5 26.5t61.5 10.5t57.5 -19.5t46.5 -39.5q23 -25 45 -58 q-20 6 -43 0q-20 -4 -45.5 -18.5t-54.5 -42.5q-29 -31 -46.5 -58.5t-27.5 -50.5q-10 -25 -16 -49q-6 -8 -15 -29q-6 -16 -15 -47.5t-19 -85.5q-12 -53 -4 -94t24 -70q18 -33 43 -57q-14 -10 -33 -27q-16 -14 -34.5 -36.5t-40.5 -55.5q-23 -33 -37.5 -68.5t-24.5 -64.5 q-12 -35 -20 -67q-8 -47 -11 -91q-2 -37 4.5 -76.5t24.5 -66.5t44 -35t48 -8q27 0 55 6q-6 -29 -18 -51q-10 -20 -31.5 -38.5t-56.5 -24.5t-72 0t-65 16q-35 10 -68 29q-27 -23 -59 -39q-29 -14 -66 -24.5t-84 -6.5t-73.5 26.5t-42.5 45.5q-18 27 -25 59q35 0 72 8 q31 8 65.5 24.5t67.5 51.5q31 33 48 66.5t26 62.5q8 33 10 64q2 39 6 75q2 31 4 66t-2 61q-4 25 -14.5 44.5t-22.5 33.5q-14 16 -33 29l54 53q23 23 47 52.5t41 58.5q16 29 27.5 65.5t19.5 69.5q8 37 16 78q0 45 -6 84q-6 35 -18.5 68.5t-38.5 51.5q-29 16 -54.5 24.5 t-48.5 10.5q-25 2 -49 -2q-23 0 -47 -8q-23 -8 -50.5 -25.5t-58.5 -52.5q-33 -35 -47 -85t-20 -95q-8 -53 -4 -109q-31 4 -58 21q-23 14 -45 40.5t-32 74.5q-12 47 -7 81.5t15 57.5q12 25 30 43q-18 25 -32 47q-12 20 -21.5 41.5t-9.5 38.5z" />
<glyph unicode="8" horiz-adv-x="1105" d="M8 406v8q96 31 115 110q35 111 139 199v8q-104 84 -139 199q-18 80 -115 110v9q90 31 115 106q45 139 143.5 219t248 80t248.5 -79t144 -220q25 -76 115 -106v-9q-96 -31 -115 -110q-35 -115 -139 -199v-8q104 -88 139 -199q18 -80 115 -110v-8q-94 -31 -115 -107 q-41 -141 -141 -220t-252 -79q-150 0 -250 79t-141 220q-20 76 -115 107zM336 291q0 -49 45 -88t129 -39h10q82 0 127 39t45 88q0 84 -94 115v8q94 31 94 114q0 49 -44 83t-128 34h-10q-84 0 -129 -33.5t-45 -83.5q0 -82 96 -114v-8q-96 -33 -96 -115zM336 926q0 -49 45 -83 t129 -34h10q84 0 128 34t44 83q0 84 -94 114v9q94 31 94 114q0 49 -45 88t-127 39h-10q-84 0 -129 -39t-45 -88q0 -82 96 -114v-9q-96 -33 -96 -114z" />
<glyph unicode="9" horiz-adv-x="1198" d="M74 979q18 20 37 45q16 23 34.5 51.5t34.5 63.5q14 31 28.5 55.5t24.5 42.5q12 20 25 37q25 41 64 74q35 29 90 53t141 31q115 6 190.5 -40t120.5 -104q53 -68 80 -155q4 -29 12 -66q4 -31 11.5 -72t15.5 -90q4 -33 19.5 -60.5t31.5 -49.5q18 -25 39 -47q-23 -25 -41 -50 q-16 -23 -28.5 -47t-16.5 -47q-8 -47 -15 -89t-11 -75q-8 -37 -13 -71q-10 -35 -20 -68q-10 -29 -23.5 -55.5t-27.5 -42.5q-27 -33 -55.5 -55.5t-53.5 -36.5q-29 -18 -59 -29l-134 -59q-29 -12 -45 -44t-22 -65q-8 -37 -8 -82q-14 2 -29 10q-12 6 -26.5 16.5t-24.5 30.5 q-12 18 -17.5 41t-9.5 43q-4 23 -4 50q-37 20 -63 49q-23 25 -39.5 61.5t-5.5 87.5q8 51 31.5 81t49.5 46q31 18 66 25q-16 -29 -25 -58q-8 -25 -10 -54.5t15 -55.5q23 -47 52 -64.5t56 -19.5q31 -4 59 10q29 10 54 33q23 18 44 50t34 83q10 41 14 93t6 99q2 53 0 111 q-23 -25 -57 -45q-31 -16 -78 -29.5t-115 -9.5q-74 4 -126 38t-87 73q-39 45 -63 102q-4 12 -11 31q-10 31 -30 92q-12 33 -26.5 56.5t-29.5 39.5q-16 18 -30 31zM393 1137q4 -53 17.5 -86t29.5 -52q16 -23 37 -30q-20 -18 -35 -43q-12 -23 -22 -53.5t-6 -69.5t16 -63.5 t29 -41.5q19 -18 39 -28q74 -31 129 -11q25 8 46 29t38.5 58.5t25.5 95t6 141.5q-8 166 -41.5 241.5t-74.5 98.5q-47 27 -103 8q-39 -18 -69 -45q-27 -23 -46.5 -59.5t-15.5 -89.5z" />
<glyph unicode=":" horiz-adv-x="419" d="M2 954q0 59 35 99.5t88 40.5t89 -40t36 -100q0 -59 -36 -98t-89 -39t-88 39t-35 98zM4 137q0 59 35 99t88 40t89 -39.5t36 -99.5q0 -59 -36 -98t-89 -39t-88 39t-35 98z" />
<glyph unicode=";" horiz-adv-x="487" d="M-78 145.5q0 63.5 41.5 104.5t104.5 41q72 0 121 -55.5t49 -165.5q0 -121 -73 -215.5t-202 -130.5l-14 32q145 102 145 246q-14 -2 -26 -2q-63 0 -104.5 41t-41.5 104.5zM4 788q0 37 11.5 69t31 55.5t46 37t54.5 13.5q59 0 102.5 -51.5t43.5 -123.5q0 -74 -43 -124 t-103 -50q-59 0 -101 50t-42 124z" />
<glyph unicode="&#x3c;" horiz-adv-x="1308" d="M4 704q0 35 37 52l809 383q61 29 109.5 57.5t64.5 42.5l18 14h5q25 -59 -9 -131l2 -4q74 -29 99 -88l-4 -4q-78 8 -217 -51l-607 -270l607 -271q61 -27 115 -39t77 -12h25l4 -4q-25 -59 -99 -88l-2 -4q33 -72 9 -131h-5q-55 49 -192 114l-809 383q-37 16 -37 51z" />
<glyph unicode="=" horiz-adv-x="1288" d="M8 369q0 66 58 118v5q-57 53 -58 118l4 2q69 -34 221 -34h666q68 0 123 9t76 17l22 8l4 -2q0 -66 -57 -118v-5q57 -53 57 -118l-4 -2q-70 35 -221 34h-666q-68 0 -123 -9t-77 -17l-21 -8zM8 799q0 66 58 119v4q-57 53 -58 118l4 2q69 -34 221 -34h666q68 0 123 9t76 17 l22 8l4 -2q0 -66 -57 -118v-4q57 -53 57 -119l-4 -2q-70 35 -221 34h-666q-68 0 -123 -9t-77 -17l-21 -8z" />
<glyph unicode="&#x3e;" horiz-adv-x="1308" d="M6 383l4 4q78 -8 217 51l607 271l-607 270q-61 27 -115.5 39t-76.5 12h-25l-4 4q25 59 98 88l2 4q-33 72 -8 131h4q55 -49 193 -114l809 -383q37 -16 37 -51t-37 -52l-809 -383q-61 -29 -109.5 -57.5t-64.5 -42.5l-19 -14h-4q-25 59 8 131l-2 4q-74 29 -98 88z" />
<glyph unicode="?" horiz-adv-x="880" d="M5 756.5q-1 50.5 11 91.5q14 47 47 92q-12 8 -22 23q-10 12 -17.5 34.5t-7.5 57.5t10.5 58.5t24.5 35.5q16 14 37 22q2 -14 10 -28q6 -12 18.5 -28.5t35.5 -31.5q23 -16 42 -21t35 -7q18 -2 33 2l344 4q41 -8 76 -31q29 -20 52.5 -59t23.5 -105t-13.5 -113.5t-29.5 -78.5 q-18 -37 -41 -62q-14 -14 -27 -34q-10 -16 -19.5 -41t-6.5 -54q2 -29 9 -48t15 -32q8 -14 21 -22q-41 -18 -76 -43q-29 -23 -57.5 -54.5t-38.5 -78.5t-3 -84t21 -64q14 -31 39 -55h-250q-10 2 -22 16q-10 12 -23.5 40t-26.5 81q-6 23 -7 40.5t1 27.5q2 12 6 18q14 12 27 27 q10 12 19.5 27.5t13.5 35.5q4 18 -6.5 37t-22.5 35q-14 18 -33 33q25 8 54 24q25 14 59.5 35t79.5 56t64.5 81t25.5 86q8 49 0 101q-14 59 -41 106q-23 39 -60.5 70t-95.5 27q-55 -4 -87.5 -21.5t-51.5 -34.5q-23 -23 -29 -45q-10 -23 -14 -49q-4 -23 -3 -56.5t17 -76.5 q12 -43 37 -69.5t47 -43.5q27 -18 60 -26q-43 -14 -84 -13q-35 2 -78 20.5t-80 67.5q-41 47 -42 97.5zM279 -307q-4 53 25.5 83.5t66.5 47.5q43 20 100 26q53 -8 94 -28q35 -16 63.5 -46t26.5 -79q-2 -47 -29.5 -78t-62.5 -47q-39 -20 -90 -29q-53 2 -94 21q-35 14 -66.5 45 t-33.5 84z" />
<glyph unicode="@" horiz-adv-x="1908" d="M6 807q0 274 127 511.5t349.5 380t486.5 142.5q338 0 554 -219t216 -555q0 -311 -148.5 -512t-341.5 -201q-178 0 -235 148h-4q-117 -111 -265 -111q-137 0 -223 90t-86 232q0 12 2 34.5t2 32.5q0 98 -104 129l2 9q125 35 135 153q16 158 125 261.5t256 103.5t244 -111h4 q55 90 158 90q59 0 101 -40t48 -95l-6 -4q-27 27 -74 27q-90 0 -102 -109l-15 -145q-10 -96 105 -131l-2 -9q-125 -37 -135 -153l-13 -144q-4 -45 25 -75.5t68 -30.5q92 0 155.5 83t91 204.5t27.5 265.5q0 285 -152.5 457t-429.5 172q-221 0 -392 -119t-259 -313.5 t-88 -430.5q0 -299 150.5 -481t427.5 -182q182 0 305 96l4 -2q18 -55 0 -104l2 -5q47 -18 67 -77l-4 -2q-174 -66 -391 -66q-358 0 -563 225.5t-205 579.5zM641 727q0 -78 42 -122t105 -44q72 0 125.5 52.5t61.5 142.5q2 8 2 24q0 96 -105 129l2 9q137 41 138 182 q0 78 -41 122t-107 44q-74 0 -131 -59.5t-57 -158t104 -130.5l-2 -9q-137 -41 -137 -182z" />
<glyph unicode="A" horiz-adv-x="1433" d="M6 72q16 -10 39 -6q20 2 48 16t67 49t61.5 75t34.5 75q14 39 20 75q6 33 13 68q4 29 6 60.5t0 60.5q-4 37 -15.5 64.5t-23.5 47.5q-14 23 -33 41q18 20 39 47q16 23 36.5 54.5t39.5 72.5q33 84 55 160q12 41 23 80q8 29 12 59q4 27 2 58t-14 59q-12 29 -33 37t-39 10 q-23 0 -45 -6q25 27 49 49q23 18 50.5 33.5t58.5 18.5q29 0 54.5 -11.5t43.5 -27.5q23 -18 39 -41q16 23 39 41q20 17 49 29q25 11 56 10h10q35 -4 62.5 -15.5t45.5 -28.5q23 -18 39 -38q-10 4 -21 2q-10 -2 -24 -9.5t-31 -25.5q-16 -18 -22 -43t-9 -47q-2 -27 0 -56 q2 -25 9 -61q4 -31 14 -77t27 -105q16 -59 43.5 -102.5t52.5 -71.5q29 -33 59 -54q-16 -27 -24 -55q-9 -27 -13 -59q-2 -11 -1 -23q0 -24 6 -51q8 -41 17 -71.5t15 -49.5q8 -23 15 -37q10 -33 26 -67q14 -29 32.5 -64.5t47.5 -68.5q25 -35 52.5 -40.5t52.5 5.5q29 10 57 35 q-14 -45 -37 -80q-20 -30 -51 -52q-26 -19 -60 -19q-6 0 -12 1q-45 4 -76.5 11t-54.5 18q-25 10 -41 24q-12 -20 -33 -32q-16 -10 -42.5 -18.5t-61.5 -2.5q-35 4 -59.5 19.5t-40.5 31.5q-18 20 -31 43q26 -10 51 -10q11 0 21 2q29 4 57.5 27.5t44.5 83.5q9 36 9 64 q0 25 -7 41q-14 36 -37 52q-27 20 -65 21l-271 2q-37 -2 -63 -21q-24 -16 -42 -50q-15 -28 -15 -76q0 -10 1 -21q2 -53 24 -82t50 -41q31 -14 72 -16q-4 -20 -17 -35q-10 -14 -32.5 -24.5t-61.5 -10.5t-64.5 6t-41.5 15q-18 8 -29 22q-12 -14 -33 -22q-16 -8 -44.5 -14.5 t-71.5 -6.5q-45 0 -66.5 10.5t-30.5 24.5q-10 14 -8 35zM449 596q0 -27 22.5 -40t50.5 -17q25 -4 54 -4h20q20 -2 40 -2t38 2q29 4 56.5 12t33.5 28q4 16 -5 47t-20 64q-12 37 -30 82l-113 338q-41 -125 -74 -229q-14 -45 -27.5 -89.5t-23.5 -83t-16 -67.5t-6 -41z" />
<glyph unicode="B" horiz-adv-x="1275" d="M2 197q47 -29 90 -29h10q18 2 38 11t37.5 29.5t29.5 55.5t16 88q1 22 1 43q0 71 -16 125q-20 70 -48 115q-33 53 -76 88q31 14 53 55q21 36 37 102q15 59 14 155v24q-4 111 -30.5 160t-59.5 63q-18 8 -39 8t-45 -8q14 37 37 66q18 25 48 43q25 15 59 15q8 0 16 -1 q43 -4 69.5 -17.5t43.5 -29.5q18 -18 26 -41q27 33 66 57q35 23 85 40.5t122 17.5q86 -6 147.5 -36t102.5 -63q47 -37 79 -84q12 -14 25 -32q20 -31 51 -91q12 -27 27.5 -43t30.5 -26q16 -12 30 -21q-18 -12 -41 -32q-18 -16 -39.5 -45t-40.5 -72q-20 -41 -37.5 -65.5 t-31.5 -39.5q-16 -16 -33 -24q29 -12 53 -33q23 -16 43.5 -42.5t34.5 -61.5q18 -51 39 -88t39 -62q23 -29 43 -51q-16 -10 -31 -27q-12 -14 -25.5 -34.5t-23.5 -49.5q-29 -74 -61 -123q-18 -29 -37 -51q-39 -41 -88 -72q-40 -27 -100 -47q-42 -14 -92 -14q-20 0 -40 2 q-72 8 -126 27.5t-89 42.5q-41 25 -71 55q-8 -16 -29 -33q-16 -14 -48 -27.5t-85 -17.5q-11 -1 -21 -1q-38 0 -63 18q-31 22 -47 51q-20 35 -29 78zM373 1042q0 -55 16.5 -105t44 -87t64.5 -58.5t77 -21.5q43 0 80 21.5t65 58.5t43 87t15 105t-15 104.5t-43 86.5t-65 58.5 t-80 21.5q-41 0 -77.5 -21.5t-64 -58.5t-44 -86t-16.5 -105zM391 403q0 -59 17.5 -111t46 -90t68.5 -60.5t85 -22.5t84 22.5t67.5 60.5t46 90t17.5 111q0 57 -17.5 109.5t-46 90.5t-67.5 60.5t-84 22.5t-85 -22.5t-68.5 -60.5t-46 -90t-17.5 -110z" />
<glyph unicode="C" d="M2 692q14 10 31 27q14 14 29.5 32.5t31.5 45.5q16 25 27.5 65.5t19.5 81.5q8 47 17 98q10 61 32 121q18 51 51 106.5t87 96.5q70 46 135 58q36 6 69 6q25 0 48 -3q59 -8 110 -36q27 -12 51 -31q23 -16 46.5 -40t43.5 -58q41 -66 64 -106t33 -48q18 -27 35.5 -40t31.5 -19 q16 -8 29 -7q-6 -12 -16 -22t-23.5 -17.5t-30.5 -9.5h-12q-29 0 -55 8q-16 4 -31 11q-6 -20 -16 -37q-10 -16 -23.5 -29.5t-34.5 -23.5q-20 -10 -38.5 -13.5t-32.5 -1.5q-18 2 -33 6q18 2 33 19q12 14 24.5 44t18.5 85q1 11 1 22q-1 41 -13 73q-16 40 -37 65q-25 29 -62 49 q-31 10 -65 14q-11 1 -22 1q-20 0 -43 -4q-36 -7 -71 -30q-35 -25 -56 -54.5t-32 -57.5q-12 -33 -18 -66q-12 -45 -17 -90q-2 -22 -2 -45q-1 -20 1 -42q4 -46 24 -89q18 -45 36.5 -67.5t35.5 -32.5q18 -12 35 -15q-27 -20 -50 -53q-18 -29 -33.5 -73t-17.5 -107v-16 q0 -53 12 -93q14 -46 32 -77t35 -50.5t28 -32.5q10 -10 41.5 -25t74.5 -21q19 -3 39 -3q26 1 54 5q50 8 96 44q43 35 64.5 101.5t31.5 132.5q8 63 8 134v28q25 2 47 -13q18 -12 32.5 -42.5t14.5 -90.5q-2 -61 -16 -112.5t-31 -85.5q-20 -43 -47 -76q-25 -41 -65 -76 q-35 -29 -94.5 -55.5t-147.5 -32.5q-13 -1 -25 -1q-74 0 -134 32q-70 37 -117 84q-55 55 -99 129q-18 37 -35 82q-14 39 -27.5 91t-17.5 118q-4 35 -21.5 61.5t-33.5 48.5z" />
<glyph unicode="D" horiz-adv-x="1372" d="M0 1260q4 39 25 71q16 29 47.5 50.5t87.5 23.5q53 0 84.5 -16.5t48.5 -36.5q18 -23 24 -54q33 29 70 52q31 20 69 40.5t76 30.5q37 10 81 10q3 -1 5 -1q46 0 87 -7q47 -8 94 -18q33 -14 65 -31q29 -16 59.5 -35.5t53.5 -48.5t40 -68.5t30 -76.5q14 -43 26 -90 q6 -29 12 -60q4 -27 10.5 -56t14.5 -56q6 -29 20.5 -54.5t30.5 -46.5q18 -23 39 -45q-18 -18 -35 -41q-14 -20 -30.5 -47.5t-26.5 -62.5q-27 -78 -35 -123q-6 -27 -8 -49q-6 -27 -14 -58q-8 -27 -20.5 -63.5t-35.5 -77.5q-37 -59 -79 -98t-78 -62q-43 -27 -86 -41 q-31 -6 -68 -10q-31 -4 -71 -5h-9q-36 0 -72 7q-53 8 -89.5 21.5t-59.5 27.5q-27 16 -43 33q-16 -31 -41 -51q-23 -17 -55 -29q-17 -6 -39 -7q-19 0 -41 5q-47 8 -76 37t-45 59q-18 37 -27 80q29 -16 58 -22q25 -4 50.5 0t47.5 30q20 25 30.5 57t16.5 60q6 33 8 66 q2 25 -2 53q-4 25 -10 57.5t-18 71.5q-14 37 -34 61.5t-38 40.5q-23 18 -45 29q14 10 29 29q12 16 26.5 42.5t28.5 67.5t20 77t9 65q2 33 0 59q1 10 1 20q0 25 -4 52q-4 31 -14 65.5t-33 65.5q-25 29 -49 38t-47 7q-25 -2 -47 -14zM385 1071q-8 -48 -8 -90q0 -44 9 -80 q17 -70 44 -115q31 -53 76 -88q-27 -18 -47 -57q-17 -35 -31 -95q-11 -47 -11 -114q0 -19 1 -39q4 -96 31.5 -154.5t62.5 -88.5q39 -37 88 -52q16 -2 32 -2q49 0 91 19q47 20 92 75t59 172q5 44 5 81q0 46 -8 82q-15 65 -37 106q-27 47 -66 74q33 70 55 145q15 66 23 144 q2 17 2 33q0 60 -21 120q-27 76 -64.5 114.5t-74.5 55.5q-43 20 -88 20q-49 -4 -92 -32q-37 -25 -73 -79.5t-50 -154.5z" />
<glyph unicode="E" horiz-adv-x="1280" d="M2 1257q12 43 37 78q20 29 56 53.5t91 27.5q55 0 93 -19t61 -41q27 -27 43 -62q31 33 68 60q31 23 72.5 44t90.5 27t85 7.5t61 -0.5q27 -2 47 -7q23 -2 45 -4q20 -2 43 -4t45 -4q23 -4 39 8.5t29 26.5q14 16 24 39q6 -12 12 -27q4 -12 9.5 -31.5t5.5 -44.5 q-2 -47 -12 -65q-6 -10 -11 -14q8 -16 17 -39q4 -20 7 -52q1 -14 1 -30q0 -22 -2 -49q-4 -47 -24.5 -79t-43.5 -50q-27 -23 -57 -35q16 45 16 96q0 43 -15 95t-63 104q-47 50 -92 66q-40 15 -72 14h-8q-41 -2 -79 -21q-23 -6 -48 -25q-23 -16 -48 -45.5t-48 -80.5 q-29 -86 -29 -150q0 -14 2 -27q8 -73 27 -118q23 -53 66 -84q39 -20 75 -27q11 -1 23 -1q23 0 48 5q38 8 73 45q31 33 40 75t9 77q-2 41 -12 84q25 -10 45 -31q16 -16 29.5 -44t15.5 -67q1 -20 1 -37.5t-1 -31.5q-2 -28 -6 -43q-4 -20 -11 -33q16 -25 29 -55q11 -27 17 -64 q3 -19 3 -41q0 -20 -3 -41q-8 -43 -26 -72.5t-34 -46.5q-20 -23 -43 -32q8 42 8 78v14q-4 37 -19.5 74.5t-58.5 58.5q-41 19 -79 19h-4q-40 -1 -68 -11q-35 -10 -64 -33q-33 -29 -53 -71q-15 -37 -23 -95q-2 -14 -2 -29q0 -48 17 -108q23 -80 55.5 -120.5t65.5 -57.5 q31 -17 66 -16h14q13 -2 27 -2q21 0 42 4q33 4 75 18.5t93 46.5q49 31 70.5 87.5t28.5 109.5q5 36 5 74q0 29 -3 59q23 -12 43 -33q16 -16 33.5 -42.5t25.5 -61.5q5 -25 6 -48q0 -12 -2 -23q-4 -34 -12 -62q-8 -33 -25 -60q4 -4 13 -12q12 -16 36 -68q12 -27 11.5 -46 t-7.5 -31q-8 -16 -20 -27q-6 10 -20 18q-12 6 -34 11.5t-59 7.5q-37 0 -64.5 -2t-43.5 -6q-20 -4 -33 -9q-25 -4 -59 -8q-29 -4 -73 -5h-18q-37 0 -81 3q-57 4 -97.5 15.5t-66.5 23.5q-31 14 -51 33q-16 -27 -45 -47q-25 -17 -65 -29q-27 -8 -63 -8q-17 0 -36 2 q-59 6 -88 32.5t-41 55.5q-13 33 -13 72v6q33 -18 64 -27q27 -8 56.5 -5t53.5 30q23 25 36.5 58.5t17.5 64.5q6 37 6 73q2 25 0 60q-4 29 -11.5 68.5t-23.5 93.5q-18 51 -36.5 74.5t-35.5 33.5q-18 10 -34 6q10 0 24 11q10 10 25.5 32.5t31.5 67.5q16 49 23.5 100t7.5 92 q0 49 -4 95q-4 31 -14 59q-10 25 -25.5 53.5t-40.5 53.5q-27 23 -57.5 25.5t-56.5 -3.5q-33 -9 -64 -25z" />
<glyph unicode="F" horiz-adv-x="1077" d="M4 1272q6 45 25 82q17 32 45 56q24 21 67 20h15q51 -4 77.5 -17.5t36.5 -30.5q12 -20 13 -43q23 20 49 39q23 16 51.5 30.5t58.5 21.5q29 4 62 0.5t61 -11.5q33 -8 64 -20q35 -4 67 -6q29 -2 58.5 -2t52.5 8t37 25.5t24 37.5q10 23 19 49q8 -16 14 -36q4 -16 8 -39t2 -45 q-2 -25 -9 -46.5t-15 -37.5q-10 -20 -23 -35q8 -10 15 -33q4 -18 8 -50q3 -21 3 -50q0 -14 -1 -31q-4 -49 -19.5 -80t-33.5 -47q-23 -20 -50 -31q7 44 7 84q0 46 -9 86q-6 33 -20 63.5t-38 57.5t-59.5 44.5t-86.5 21.5q-80 0 -126 -36t-69 -79q-27 -51 -35 -115 q-3 -30 -3 -58q0 -37 5 -71q8 -53 31 -103t76 -75q49 -23 86 -27t62.5 6.5t43 32t27.5 45.5q20 52 20 129v21q16 -10 29 -29q10 -16 19.5 -42.5t11.5 -69.5q0 -43 -4 -70t-11 -43q-8 -18 -16 -27q8 -8 16 -26q6 -16 12.5 -41t6.5 -64q0 -41 -8.5 -67.5t-18.5 -42.5 q-10 -20 -24 -31q0 72 -23 125q-18 45 -60 77q-32 25 -85 25q-16 0 -35 -2q-47 -10 -78 -34.5t-47 -53.5q-20 -33 -29 -69q-8 -41 -10 -84q-1 -11 -1 -22q0 -28 4 -62q5 -48 26 -97q20 -51 52 -67.5t60 -18.5h7q32 0 65 15q-6 -41 -20 -74q-12 -29 -37 -53.5t-68 -26.5h-17 q-33 0 -57 6q-28 8 -45 19q-20 12 -32 28q-6 -14 -21 -24q-12 -10 -36.5 -18.5t-63.5 -10.5h-6q-38 0 -60 22q-24 24 -41 54q-18 35 -26 80q29 -8 53 -7q21 0 39 5q35 10 63 52q26 39 25 127v13q-4 86 -24.5 147.5t-43.5 102.5q-27 47 -61 80q39 16 65 57q23 35 41 99 q13 47 13 118q0 24 -2 52q-4 80 -14.5 133t-24 86.5t-30.5 50t-34 22.5q-10 3 -21 3q-31 0 -67 -27z" />
<glyph unicode="G" horiz-adv-x="1310" d="M2 686q23 18 41 41q16 18 30.5 43t22.5 49q8 29 15.5 60.5t13.5 58.5q8 31 12 61q20 98 68 183q20 37 48 73.5t64.5 68.5t85 57.5t107.5 39.5q50 12 94 12q8 0 16 -1q50 -2 93 -15.5t77.5 -34t61.5 -45.5q63 -57 102 -137q6 -12 15 -26l20 -30t31 -34q16 -18 32.5 -28.5 t28.5 -16.5q14 -8 29 -10q-10 -12 -20 -21q-10 -8 -24.5 -15t-37.5 -11q-23 -5 -42 -5q-14 0 -25 3q-14 2 -25 8q-2 -16 -10 -31q-14 -33 -58 -53q-25 -10 -47 -14.5t-41 -4.5q-23 0 -41 2q29 35 49 72q16 33 26 76q6 22 6 46q0 23 -5 48q-12 51 -36.5 83t-49.5 48 q-29 20 -61 29q-26 5 -51 5q-19 0 -37 -3q-37 -6 -81 -26.5t-81 -71.5q-35 -55 -52.5 -106.5t-22.5 -97.5q-2 -21 -2 -41q0 -23 3 -45q6 -40 18 -73q27 -78 87 -139q-53 -57 -78 -129q-20 -54 -20 -129v-21q3 -88 65 -196q31 -45 60.5 -71t58 -37t55 -10t49.5 7 q53 16 104 68q16 16 31 47q12 27 22.5 73t14.5 117q0 98 -21.5 147.5t-50.5 67.5q-26 18 -55 18q-8 0 -16 -1q18 23 41 41q18 16 42.5 28.5t53.5 12.5q29 -2 48 -8.5t32 -16.5q14 -10 24 -23q10 12 31 23q16 8 42 15.5t65 7.5t58 -15.5t30 -34.5q10 -23 10 -49q-13 3 -26 3 q-28 0 -52 -15q-29 -18 -52.5 -68.5t-23.5 -156.5q0 -109 19.5 -171.5t42.5 -95.5q27 -37 63 -51q-12 -27 -33 -45q-16 -16 -43 -27q-12 -5 -28 -5t-35 6q-37 8 -61.5 22t-38.5 27q-16 14 -25 30q-70 -55 -152 -79q-58 -19 -129 -19q-15 0 -31 1q-91 5 -194 73 q-53 47 -92 109.5t-61 117.5q-29 66 -46 133q-6 18 -14 41q-14 39 -35 92q-10 25 -25.5 45.5t-31.5 36.5q-19 19 -39 33z" />
<glyph unicode="H" horiz-adv-x="1380" d="M-4 1290q16 35 41 66q20 25 51 47t72 27q17 2 31 2q19 0 33 -4q24 -6 38 -15q16 -10 23 -24q12 16 32 26q16 11 43 15q14 2 31 2q15 0 33 -2q35 -6 61.5 -29t44.5 -47q23 -29 37 -64q-45 20 -82 20q-19 0 -36 -5q-23 -6 -42.5 -24.5t-34 -51.5t-21.5 -85q-4 -33 -4 -75 q0 -24 1 -51q0 -49 10.5 -86t27.5 -63.5t40 -43t45 -26.5q49 -21 112 -21h11q16 -2 31 -2q44 0 84 17q45 20 82.5 74.5t46.5 168.5q1 18 1 34q0 90 -28 136q-33 54 -76 72q-34 16 -76 16q-20 0 -41 -4q25 39 54 70q25 27 58.5 48.5t70.5 21.5q35 0 59.5 -10.5t40.5 -24.5 q18 -16 27 -37q10 18 28 35q16 14 41 24t60 13q35 0 63.5 -25t48.5 -55q23 -37 41 -82q-33 12 -63 14q-27 2 -53.5 -7t-42.5 -40q-16 -29 -25.5 -59.5t-13.5 -57.5q-6 -31 -6 -59q-4 -25 -5 -58q0 -29 4.5 -68.5t16.5 -86.5t26.5 -77t28.5 -46q14 -20 31 -27 q-16 -16 -29 -37q-12 -16 -23.5 -37.5t-19.5 -43.5q-8 -23 -11 -48.5t-5 -48.5q-2 -25 -2 -51q0 -45 6 -86q4 -35 12 -73t23 -62q14 -27 37.5 -40t46.5 -17q27 -6 55 -5q-6 -35 -20 -61q-12 -25 -34 -46.5t-59 -29.5q-22 -4 -41 -4q-14 0 -24 2q-28 4 -45 12q-23 8 -37 23 q-20 -20 -45 -31q-23 -10 -51 -13q-5 -1 -11 -1q-24 0 -53 12q-35 14 -54 41t-30 53q-12 31 -16 64q29 -16 53 -21q23 -4 46.5 7.5t41.5 52.5q15 41 21 90q4 36 5 70q0 12 -1 24q-2 53 -10 105q-10 53 -37 96q-25 36 -71 66q-43 29 -118 28h-10q-84 -2 -133 -30.5t-76 -63.5 q-31 -41 -43 -94q-6 -43 -8 -90q-1 -14 0 -28q0 -28 2 -62q4 -50 18 -99q12 -51 43 -62.5t62 -4.5q37 8 78 32v-16q0 -32 -6 -59q-8 -29 -27 -57.5t-59 -41.5q-32 -8 -58 -8q-8 0 -16 1q-33 3 -58 13q-29 10 -51 27q-27 -16 -55 -25q-25 -8 -53.5 -12t-53.5 4q-27 8 -44 33 t-27 51q-12 31 -23 68q18 -12 39 -12q16 0 39 10t45 43q23 31 32 64.5t13 62.5q3 23 3 45q0 11 -1 22q0 33 -2 68q-2 29 -7 64.5t-17 70.5q-12 33 -28.5 56.5t-31.5 37.5q-16 16 -33 27q16 10 33 24q14 12 29.5 32t28.5 46q10 27 16 62t10 63q3 23 3 47q0 12 -1 23 q2 25 0 57q-2 29 -7 67t-19 85t-40 63.5t-53 16.5q-30 -1 -65 -17z" />
<glyph unicode="I" horiz-adv-x="727" d="M4 156q40 -23 76 -24q11 0 22 3q18 4 37 17.5t34 40t25.5 69.5t14.5 107q1 20 1 39q0 86 -16 142q-18 68 -40 105q-27 43 -62 62q29 18 51 57q18 35 35 92.5t17 155.5q0 143 -31 201.5t-68 68.5q-12 4 -25 4q-33 0 -71 -24q8 41 27 74q16 29 43.5 52t72.5 27q16 1 31 2 q25 0 44 -5q30 -7 46 -17q20 -10 31 -27q10 16 31 25q16 8 47 12q9 1 19 1q25 0 59 -7q47 -8 68.5 -26.5t31.5 -39.5q10 -23 8 -51q-10 1 -21 1q-37 0 -67 -17q-35 -20 -62.5 -74.5t-31.5 -169.5q-1 -18 -1 -35q0 -55 10 -99q13 -58 30 -99q20 -49 47 -84q-29 -29 -51 -78 q-18 -41 -34 -107q-12 -52 -12 -122q0 -18 1 -37q2 -66 11 -110t23.5 -70.5t31 -40t34.5 -15.5q8 -1 16 -1q35 0 76 28v-16q0 -32 -6 -58q-8 -29 -29.5 -53.5t-68.5 -28.5q-24 -2 -43 -2t-34 2q-30 4 -48 12q-23 8 -33 21q-16 -18 -39 -29q-24 -10 -56 -13q-6 -1 -13 -1 q-29 0 -70 10q-51 12 -75.5 37t-35.5 49q-8 24 -8 52v12z" />
<glyph unicode="J" horiz-adv-x="1126" d="M5 61.5q3 26.5 9 44.5q8 23 21 41q-14 41 -21 82q-3 23 -3 50q0 13 1 27q2 42 25 81t49.5 60.5t48.5 33.5q27 12 55 19q-18 -27 -28 -60q-10 -29 -14 -64v-14q0 -28 10 -59q18 -53 40.5 -85t45.5 -48q23 -20 49 -25q27 -8 55 -6q25 2 56.5 12.5t66.5 38.5q33 29 51.5 65 t28.5 67q10 37 14 73q4 41 4 80q0 35 -2 75t-10 77q-10 35 -23.5 57.5t-27.5 34.5q-16 14 -33 20q18 14 35 37q14 16 27.5 42t21.5 54q6 29 9 54.5t3 44.5v41q2 30 2 59t-2 55q-4 47 -13 91.5t-30 62.5q-23 18 -43 22.5t-37 2.5q-20 -5 -38 -13q10 39 30 70q16 27 44 48.5 t71 23.5q43 0 67.5 -7.5t36.5 -17.5q14 -10 19 -25q2 16 18 27q12 10 40 17q22 6 56 6h19q47 -4 75.5 -26t45.5 -48q18 -31 26 -68q-27 2 -51 -2q-23 -4 -45 -13t-39 -28q-16 -20 -26.5 -40.5t-16.5 -39.5q-8 -23 -10 -43q-6 -10 -8 -32q-4 -18 -3 -49t5 -78t21.5 -85 t37.5 -67q23 -33 53 -57q-14 -4 -26 -17q-12 -10 -25.5 -30.5t-23.5 -55.5q-12 -35 -17.5 -62.5l-9.5 -47.5q-4 -23 -2 -41q-1 -14 -1 -30t1 -34q2 -29 5 -65.5t13 -75.5q10 -41 31 -58.5t43 -25.5q25 -8 53 -6q-16 -27 -36 -47q-18 -16 -43 -29.5t-60 -9.5q-35 2 -53 10 t-29 17q-10 8 -12 20q-23 -18 -49 -39q-23 -18 -55.5 -40.5t-73.5 -45.5q-53 -29 -104 -38q-36 -6 -67 -6q-13 0 -26 1q-49 2 -92 16q-10 6 -20 9q-10 2 -23.5 1t-30.5 -10q-16 -10 -22 -26.5t-6 -32.5q0 -20 4 -43q-23 2 -43 12q-16 10 -33.5 26.5t-28.5 49.5 q-10 31 -7 57.5z" />
<glyph unicode="K" horiz-adv-x="1417" d="M6 164q23 -6 45 -6q20 0 43 7t45 25q23 18 35 40t16 40q6 23 7 45q3 23 3 49q0 13 -1 27q-2 35 -7.5 81t-21.5 97t-36.5 83t-39.5 50q-23 23 -45 31q12 0 29 12q14 10 32.5 33t41.5 64t35 78.5t16 66.5q6 33 2 62q0 41 -6 79q-4 35 -14.5 70t-26.5 62q-18 25 -42 34 t-46 11q-25 1 -50 -5q20 35 43 64q20 25 45 44t54 22q29 2 54.5 -8.5t43.5 -22.5q23 -14 41 -35q27 23 57 37q27 12 60 18q12 2 25 2q21 0 42 -6q35 -12 53.5 -33.5t24.5 -44.5q8 -25 4 -55q-25 18 -51 14q-23 -4 -52.5 -26.5t-57.5 -85.5q-20 -59 -28.5 -106.5t-10.5 -84.5 q-1 -11 -1 -20q0 -25 4 -45q5 -28 13 -45q18 -45 55 -62q27 -6 56 -5q25 0 54.5 6.5t57.5 29.5q29 20 47.5 52t30.5 63q14 37 25 73q4 4 8 25q4 16 8 51t8 94q2 34 2 62q0 20 -1 38q-3 42 -9 68q-8 31 -18 52q16 2 32 0q14 -2 30.5 -5.5t33.5 -9.5q16 -8 28.5 -18.5 t22.5 -20.5q8 -12 16 -26q12 16 33 30q16 12 42 23.5t63 15.5t63.5 1t44.5 -7q23 -6 37 -14q20 -18 33 -41q10 -20 14 -52q1 -7 1 -15q0 -26 -11 -58q-16 -43 -34.5 -69.5t-35.5 -41.5q-20 -18 -39 -24q6 14 11 30q6 31 -2 56q-6 10 -18.5 18t-22.5 12q-14 6 -29 7 q-23 -2 -45 -9q-20 -4 -42 -14t-40 -29q-18 -18 -31.5 -42.5t-23.5 -47.5q-10 -27 -19 -53q-2 -14 -6 -35q-8 -39 -25 -100q-10 -35 -19 -56.5t-17 -33.5q-8 -14 -17 -23q18 -2 39 -8q39 -10 72 -37q33 -29 60.5 -80t41.5 -92q6 -23 17.5 -59.5t23.5 -73.5q12 -43 29 -92 l59 -143q8 -14 19 -25q23 -23 61 -23q20 0 36.5 8.5t29.5 18.5q14 12 24 29q0 -47 -12 -86q-10 -35 -35.5 -65t-73.5 -38q-21 -4 -40 -4q-22 0 -40 6q-32 10 -51 23q-23 16 -34 39q-14 -23 -37 -39q-20 -15 -50 -27q-26 -10 -61 -10h-12q-43 2 -68.5 34t-38.5 66 q-14 41 -18 95q25 -18 49 -29q23 -10 45.5 -11t40.5 17q16 18 21.5 45t3.5 51q-2 29 -11 60q-8 29 -20 61q-10 29 -26.5 60.5t-39.5 62.5q-23 29 -42 48.5t-33 29.5q-16 12 -31 18q-23 6 -45 10q-20 4 -47 3.5t-56 -11.5q-29 -10 -48 -23.5t-29 -25.5q-12 -14 -21 -29 q-20 -37 -29 -79q-10 -37 -10 -88.5t21 -112.5q20 -61 53 -86t63 -31q13 -3 27 -3q24 0 49 9q-4 -37 -16 -65q-12 -27 -36 -49.5t-67 -26.5q-16 -1 -30 -1q-24 0 -44 4q-30 7 -49 17q-23 12 -34 29q-25 -16 -49 -26q-23 -10 -48.5 -17.5t-48.5 -5.5q-51 14 -77.5 41 t-38.5 55q-14 33 -17 68z" />
<glyph unicode="L" horiz-adv-x="1136" d="M4 186q29 -12 55 -16q23 -4 48.5 1t46.5 28q20 23 29.5 55.5t13.5 64.5q4 37 4 80q2 27 0 58q-2 27 -6.5 60.5t-14.5 68.5t-23.5 64.5t-27.5 51.5q-16 25 -33 48q12 10 25 24q10 12 22.5 30.5t22.5 43.5q10 23 16 58.5t11 70.5q6 39 10 82q2 31 -2 63q-4 29 -11.5 60.5 t-23.5 64.5q-16 31 -40 46.5t-46 19.5q-24 6 -53 2q12 33 34 57q16 23 44 40.5t65 17.5q37 -2 58.5 -7.5t33.5 -11.5q12 -8 19 -14q18 14 41 22q20 7 48 11q13 2 29 2q18 0 39 -2q39 -6 60.5 -32t31.5 -55q12 -33 17 -71q-23 14 -45 18q-20 4 -46 -2t-53 -31 q-20 -20 -29 -53t-14 -65q-4 -28 -4 -59v-21q-1 -18 -1 -35.5t1 -36.5q2 -31 7.5 -67.5t19.5 -69.5q10 -35 25.5 -56.5t29.5 -33.5q16 -14 33 -23q-14 -16 -27 -35q-12 -16 -25 -36.5t-24 -44.5q-10 -27 -15 -56.5t-9 -56.5q-4 -31 -6 -62v-18q0 -28 4 -55q4 -35 16 -76 t39 -84q25 -43 59.5 -59.5t65.5 -20.5q12 -1 25 -1q25 0 51 5q23 0 45 8q20 8 43.5 24.5t46.5 47.5q23 29 27 81q2 23 2 46q0 28 -3 55q-4 57 -14 121q31 -8 59 -22q25 -14 48.5 -37t35.5 -62t14.5 -71.5t-1.5 -57.5q-4 -29 -13 -53q14 -10 27 -31q10 -16 19.5 -44.5 t9.5 -69.5t-14.5 -65.5t-30.5 -39.5q-20 -16 -43 -24q4 18 4 37q-2 16 -8.5 33.5t-24.5 33.5q-18 14 -35.5 17.5t-32.5 1.5q-16 -2 -28 -11q-35 -16 -72 -26q-31 -10 -68.5 -18.5t-72.5 -8.5h-10q-30 0 -62 10q-37 12 -67 29q-37 18 -70 39q-14 -25 -39 -43q-23 -15 -59 -27 q-27 -9 -65 -9q-13 0 -28 1q-57 4 -85.5 32.5t-41.5 63.5q-14 39 -14 88z" />
<glyph unicode="M" horiz-adv-x="1548" d="M8 135q18 -6 39 -4q16 2 36.5 9t41.5 28q20 20 29.5 51t13.5 62q4 35 4 73q-2 31 -8 66q-4 29 -10.5 63.5t-16.5 69.5t-22.5 58.5t-22.5 39.5q-12 18 -24 31q33 16 55 59q21 37 37 105q13 54 13 140q0 21 -1 44q-4 115 -30.5 171t-55.5 79q-30 24 -67 24q-5 0 -11 -1 q12 41 41 71q25 26 70 44q28 11 68 12q25 0 55 -5q55 -12 90 -27.5t56.5 -31.5t34.5 -32.5t23 -30.5q29 -37 53.5 -84.5t43.5 -88.5q20 -49 37 -98l116 -422q23 92 45 174q18 70 36 137.5t28 96.5q8 29 23.5 68.5t34 80.5t40 77t39.5 59q18 20 32.5 38.5t34 34t49 27.5 t81.5 22q20 4 40 4q29 0 54 -9q43 -15 74 -40q37 -29 65 -67q-43 -2 -80 -35q-31 -29 -56.5 -88.5t-29.5 -171.5q-1 -23 -1 -44q1 -82 13 -136q16 -66 37 -101q23 -41 58 -55q-20 -23 -37 -51q-14 -25 -28.5 -59.5t-18.5 -79.5q-6 -45 -6 -89.5t2 -78.5q2 -41 8 -80 q2 -18 10 -35q6 -14 17.5 -30.5t31.5 -28.5q23 -16 37 -21.5t25 -3.5q10 2 18 10q4 -33 -4 -59q-6 -23 -24.5 -43.5t-57.5 -24.5q-41 -4 -63.5 0t-34.5 12q-14 8 -21 23q-12 -20 -30 -31q-16 -10 -42 -13q-5 -1 -11 -1q-23 0 -52 10q-37 12 -55.5 36t-28.5 48q-10 27 -10 60 q16 -6 37 -9q16 -2 36.5 1t41.5 16q18 12 29.5 32.5t17.5 43.5q8 23 8 51q1 14 1 30.5t-1 34.5q-2 31 -5 70t-11 86q-10 45 -19.5 75.5t-19.5 51.5q-10 23 -21 37q10 14 19 37q16 41 34 108q8 35 12.5 72t8.5 65q4 35 4 68q0 37 -4 65q-4 25 -11.5 45.5t-21.5 22.5 q-16 0 -26.5 -11t-18.5 -26q-8 -16 -16 -37l-111 -331l-78 -301q-8 -45 -16 -89q-7 -38 -13 -80q-4 -29 -4 -54q0 -12 1 -23q0 -49 6 -86t16 -62q8 -29 23 -47q-10 -4 -25 -2q-12 2 -29.5 7t-40.5 20q-23 14 -33 24.5t-14 14.5q-6 6 -4 8l-14 -14q-8 -6 -18.5 -15.5 t-24.5 -19.5q-16 -10 -32.5 -14.5t-29.5 -6.5q-16 -2 -28 -2q16 20 28 49q10 25 18.5 63t8.5 91q-2 53 -8 105.5t-17 95.5q-10 51 -24 96l-90 319l-97 267q-4 18 -12 32q-6 12 -16 21.5t-21 7.5q-20 -6 -28 -39q-4 -16 -4 -35v-20q0 -16 2 -53t6 -107q4 -72 12 -115t18 -65 q10 -27 23 -39q-12 -23 -23 -51q-10 -27 -18 -64t-12 -88q-3 -41 -3 -76v-18q1 -43 5 -76q4 -37 10 -67q4 -14 12 -29q6 -12 14.5 -24.5t18.5 -22.5q18 -14 35.5 -18.5t34.5 -4.5q18 0 35 2q-8 -35 -23 -63q-12 -25 -33.5 -47.5t-54.5 -26.5q-33 -6 -55.5 -1t-38.5 16 q-18 10 -29 26q-14 -20 -37 -33q-18 -10 -43.5 -15t-58.5 7t-47.5 32.5t-18.5 43.5q-6 23 -4 51z" />
<glyph unicode="N" horiz-adv-x="1302" d="M2 119q8 -1 17 -1q45 0 81 19q37 21 65 71q25 46 25 133v19q-4 104 -21 167t-38 98q-23 41 -51 59q23 4 41 41q16 31 30.5 94.5t22.5 186.5v18q0 116 -24 174q-26 64 -60 90q-33 25 -76 25h-12q18 31 49 57q27 23 70 43.5t108 24.5q9 1 17 1q55 1 95 -23q46 -26 77 -62 q37 -39 61 -92q18 -43 33 -82q12 -35 24.5 -73t20.5 -69t22.5 -88t26.5 -114q14 -68 31 -142q8 -39 20 -82q10 -37 25.5 -82t38.5 -86q23 -49 38 -75.5t25 -38.5q12 -14 21 -17v828q0 14 -4 33q-4 16 -11.5 34.5t-23.5 40.5q-16 20 -34.5 28.5t-35.5 8.5q-18 0 -37 -6 q4 33 17 59q10 23 32.5 42.5t63.5 23.5t62.5 -1t31.5 -13q12 -8 17 -23q16 18 39 31q20 10 48 17q12 3 25 3q19 0 41 -6q39 -10 59.5 -31.5t30.5 -44.5q10 -27 13 -57q-13 2 -24 2q-33 0 -62 -16q-35 -18 -65 -67.5t-36 -154.5q-5 -48 -5 -91q1 -49 7 -89q12 -76 27 -125 q20 -59 47 -98q-20 -37 -37 -88q-14 -43 -25.5 -103.5t-13.5 -136.5q-1 -17 -1 -33q-1 -58 11 -105q14 -60 31 -101q20 -49 47 -84q-21 -1 -41 -1q-50 0 -98 7q-57 10 -114.5 34.5t-88.5 78.5q-33 55 -53 96t-31 67q-12 31 -18 54q-14 31 -29 67q-12 31 -26.5 71t-26.5 85 q-14 45 -24.5 85t-20.5 71q-10 37 -20 67q-2 18 -9 43q-4 23 -11 52.5t-17 66.5t-25.5 71.5t-28.5 61.5q-16 31 -30 59l-11 -907q-2 -20 7 -41q4 -16 16 -33.5t35 -27.5t42 -10.5t34 6.5q16 6 28 18q-4 -29 -12 -51q-8 -20 -24.5 -38.5t-47.5 -29.5q-31 -10 -59.5 -9 t-50.5 5q-27 6 -52 17q-12 -10 -32 -17q-16 -4 -41 -7t-58 7q-35 6 -54 24.5t-30 37.5q-12 23 -16 49z" />
<glyph unicode="O" horiz-adv-x="1363" d="M0 705q25 8 47 26q20 16 41 43t35 68q8 25 16 58.5t15 66.5q8 37 12 75q29 113 86 199q25 37 58.5 72t77.5 61t100 42q50 14 109 14h15q68 -4 124.5 -21.5t101.5 -44.5t79.5 -60.5t59.5 -66.5q59 -82 90 -180q4 -20 12 -51q4 -27 10.5 -65t10.5 -87q4 -51 18.5 -83 t30.5 -52q20 -23 43 -35q-16 -8 -35 -22q-16 -12 -32.5 -33t-30.5 -51q-20 -47 -27 -89q-6 -23 -6 -45q-12 -129 -66 -227q-23 -43 -56.5 -83t-81.5 -70q-49 -30 -113 -48q-52 -14 -117 -15q-15 0 -31 1q-72 2 -129 21.5t-103.5 50t-81 69.5t-59.5 80q-59 96 -88 215 q-4 25 -12 51q-6 23 -15.5 50.5t-19.5 52.5q-10 29 -24.5 49.5t-28.5 34.5q-16 16 -35 29zM338 973q0 -86 27.5 -158t74.5 -119q-41 -47 -66.5 -115.5t-25.5 -148.5q0 -72 19.5 -133t53.5 -107.5t79 -73t96 -26.5t96 26.5t79 73t53.5 107.5t19.5 133q0 78 -24.5 145.5 t-65.5 114.5q47 47 76.5 121t29.5 160q0 72 -20.5 135t-56 110.5t-83 75t-102.5 27.5q-53 0 -101 -27.5t-83 -75t-55.5 -111t-20.5 -134.5z" />
<glyph unicode="P" horiz-adv-x="1372" d="M6 201q47 -20 85 -19h13q37 4 68 34t31 114t-18.5 148.5t-41.5 109.5q-27 53 -59 90q37 35 68 84q25 42 46 102q19 55 19 128v14q-4 80 -15.5 134t-26.5 91t-33.5 56.5t-37.5 29.5q-20 9 -41 9q-27 0 -57 -15q25 37 55 65q27 24 64 42q23 12 50 11q16 0 34 -4 q45 -10 72.5 -27.5t44.5 -33.5q18 -20 24 -43q29 29 76 51q41 20 104.5 35.5t159.5 17.5q94 0 164 -31.5t115 -70.5q53 -45 88 -102q8 -14 18 -29q10 -12 21.5 -26.5t25.5 -28.5q12 -16 26.5 -26.5t27.5 -16.5q14 -8 28 -11q-12 -8 -20 -16q-10 -8 -18.5 -19.5t-16.5 -21.5 q-14 -12 -25.5 -28.5t-19.5 -32.5q-10 -18 -19 -37q-16 -49 -43 -101q-23 -43 -61.5 -94t-95.5 -96q-29 -23 -64 -35t-73 -16q-25 -3 -50 -3q-13 0 -26 1q-39 2 -76 8q-86 12 -176 45q-8 -39 -14 -90q-4 -43 -8 -101q-1 -18 -1 -37q0 -44 6 -94q8 -72 37 -99.5t62 -31.5 q10 -2 20 -2q29 0 62 13q-4 -41 -21 -78q-14 -31 -40.5 -62.5t-71.5 -46.5q-33 -12 -59 -12q-10 0 -18 2q-32 6 -52 16q-25 12 -41 35q-6 -16 -25 -26q-16 -11 -46 -17q-13 -3 -32 -2q-22 0 -51 4q-53 6 -77.5 37t-35.5 66q-8 32 -8 73v17zM401 1008q0 -66 17.5 -124.5 t48.5 -101.5t71 -67.5t85 -24.5t86 24.5t70.5 67.5t47 101.5t17.5 124.5t-17.5 124t-47 101t-70.5 67.5t-86 24.5t-85 -24.5t-71 -67.5t-48.5 -101.5t-17.5 -123.5z" />
<glyph unicode="Q" horiz-adv-x="1392" d="M0 709q25 8 47 26q18 16 38.5 43t35.5 68q8 25 16 59.5t15 65.5q8 37 12 76q31 113 88 198q25 37 58.5 72t77.5 62.5t100 42.5q48 12 106 12h16q137 -6 225.5 -64.5t139.5 -128.5q59 -82 90 -180q4 -23 12 -51q4 -27 10.5 -64t10.5 -86q4 -51 18 -83t31 -52 q20 -23 45 -37q-18 -8 -37 -22q-16 -12 -32.5 -33t-30.5 -51q-10 -20 -15.5 -43t-9.5 -43q-4 -23 -6 -47q-6 -74 -29 -142q-20 -59 -59 -122.5t-107 -110.5l2 -2l80 -103q27 -37 53 -63q23 -25 49.5 -44.5t49.5 -23.5t45 1t39 11q20 8 37 17q-16 -47 -41 -84 q-23 -31 -59 -55q-27 -19 -64 -19q-12 0 -25 2q-53 6 -89 23.5t-58 36.5q-27 23 -43 47l-133 194q-41 -6 -89 -6h-24q-72 2 -129 21.5t-103.5 51.5t-81 70.5t-59.5 79.5q-59 96 -90 215q-4 25 -12 52q-6 23 -15.5 49t-19.5 51q-10 29 -24.5 50.5t-28.5 35.5q-16 16 -33 27z M336 977q0 -86 28.5 -157.5t75.5 -119.5q-43 -47 -68.5 -115.5t-25.5 -148.5q0 -70 19.5 -131t53.5 -107t79 -73t96 -27t96 27t79 73t53.5 107.5t19.5 130.5q0 78 -24.5 145.5t-65.5 114.5q49 47 77.5 121t28.5 160q0 72 -20.5 135.5t-56.5 110.5t-83 74.5t-100 27.5 q-55 0 -102 -27.5t-83 -74.5t-56.5 -110.5t-20.5 -135.5z" />
<glyph unicode="R" horiz-adv-x="1372" d="M2 1257q12 45 37 82q20 31 56 56.5t91 27.5q53 0 86 -16t50 -37q20 -23 24 -55q29 39 74 65q38 24 98 40q33 9 75 9q33 0 71 -6q94 -14 158.5 -61t105.5 -98q47 -61 76 -134l16 -40l12 -32t10 -20q4 -18 15.5 -33.5t21.5 -27.5q12 -14 25 -25q-16 -4 -39 -18 q-18 -12 -44 -37t-56 -72q-25 -39 -48.5 -67.5t-42.5 -50.5q-23 -25 -38 -43q18 -10 36 -27q16 -14 35 -38t37 -56q16 -35 29.5 -81t23.5 -89q10 -51 19 -105q6 -33 18 -57q10 -23 27.5 -43.5t42.5 -26.5t44 1.5t34 17.5q16 12 28 28q-2 -49 -16 -88q-12 -35 -36.5 -62.5 t-67.5 -31.5q-13 -1 -25 -1q-27 0 -48 6q-30 9 -48 24q-23 16 -35 37q-16 -27 -39 -45q-20 -17 -51 -25q-13 -4 -27 -3q-21 0 -45 7q-41 10 -61.5 41t-28.5 62q-8 37 -8 77q33 -20 59 -28q23 -6 43.5 -1t28.5 38q6 33 7 59.5t-1 46.5q-2 23 -8 43q-8 35 -21 72 q-12 31 -31.5 66.5t-54.5 68.5q-35 31 -71.5 44t-71.5 17q-20 2 -39 2l-39 -2q-37 -12 -63 -41q-24 -25 -42 -71q-15 -37 -15 -92q0 -12 1 -25q-1 -19 -1 -36q0 -86 25 -129q30 -52 69 -73q32 -17 71 -16q15 0 31 2q-10 -41 -29 -74q-16 -29 -44 -49q-20 -14 -48 -14 q-11 0 -24 2q-47 6 -71 13t-36 16q-14 8 -16 16q-8 -18 -27 -27q-16 -10 -45 -13q-7 -1 -14 -1q-26 0 -64 8q-49 8 -72.5 33t-33.5 53q-10 33 -11 70q21 -6 40 -6q27 0 48 12q32 16 58 68q24 49 24 153v17q-4 117 -23.5 177t-39.5 89q-25 33 -53 35q31 31 55 79 q23 41 40 104.5t21 154.5v15q0 105 -26 150q-28 48 -64 58q-13 4 -28 4q-30 0 -66 -17zM362 993q0 -61 16.5 -115.5t45.5 -96.5t67.5 -65.5t83.5 -23.5t84 23.5t68 65.5t45 96.5t16 115.5t-16 115.5t-45 96.5t-67.5 65.5t-84.5 23.5q-45 0 -83.5 -23.5t-67.5 -65.5 t-45.5 -96t-16.5 -116z" />
<glyph unicode="S" horiz-adv-x="983" d="M6 313q4 53 20.5 87t34.5 57q23 25 48 39q-14 -39 -17 -82q0 -6 -1 -12q1 -34 11 -76q12 -50 50 -103q29 -43 60.5 -66.5t57.5 -33.5q31 -12 58 -14q18 -1 36 -1q59 0 107 15q53 14 96 57q39 39 39 116v15q-4 74 -28.5 125t-51.5 86q-33 39 -69 66q-10 6 -25 14 q-29 14 -67 23q-23 4 -40.5 2t-29.5 -6q-14 -4 -25 -11q0 18 -2 37q-4 16 -9 32.5t-15 31.5q-10 14 -19.5 26.5t-17.5 22.5t-17 20q-53 61 -90 129q-31 59 -48 134q-7 30 -7 60q0 47 16 95q27 78 76 124t101 71q57 29 124 41q18 4 41 2q18 -2 43 -7.5t54 -15.5q23 -8 40 -12 t29 -8l25 -7q18 -4 39 -8q16 -4 35.5 -6t40.5 0q18 0 34.5 12.5t26.5 26.5q13 17 23 37q10 -14 18 -33q6 -16 11 -39.5t3 -54.5t-12 -50.5t-22 -31.5q-14 -14 -31 -20q4 -25 4 -52q-2 -23 -8 -53.5t-23 -58.5q-16 -31 -40.5 -47.5t-47.5 -22.5q-27 -8 -57 -8q29 55 39 108 q6 26 6 55q0 20 -3 40q-7 50 -52 86q-39 25 -67 35t-44 14q-20 4 -33 0q-8 1 -15 1q-40 0 -75 -18q-35 -16 -69.5 -59t-45.5 -129q0 -9 -1 -17q0 -87 39 -131q42 -50 95 -69q61 -23 142 -23q0 -12 6 -22q4 -10 11 -22.5t24 -22.5q16 -10 26.5 -18.5t20.5 -14.5q8 -8 18 -12 q51 -25 92 -70q35 -41 68 -107.5t43 -174.5q3 -24 2 -47q0 -31 -4 -59q-8 -48 -26.5 -86t-45 -67.5t-55.5 -52.5q-68 -53 -158 -82q-33 -4 -69 -6q-21 -1 -44 -1h-23q-36 1 -71 7t-60.5 7t-41.5 -1q-20 -2 -35 -6q-10 2 -18 -2q-10 -4 -20.5 -10t-26.5 -23 q-16 -16 -23.5 -28t-11.5 -23q-4 -10 -2 -20q-12 14 -23 31q-10 14 -17 32.5t-9 38.5q-4 18 -1 34.5t7 27.5q4 12 10 22q-14 23 -24 58q-9 30 -15 70q-3 23 -4 51q0 20 2 42z" />
<glyph unicode="T" horiz-adv-x="1292" d="M4 1413q2 31 10.5 48.5t18.5 27.5t24 14q2 -18 11 -35q6 -14 18 -29.5t35 -25.5t47.5 -10t46.5 4q25 6 51 14q23 6 49 11q14 2 29 2q38 0 86 -11q35 -10 58.5 -26.5t39.5 -34.5q18 -23 33 -45q18 41 51 67q29 22 72 36q18 6 40 6q31 0 69 -11q16 -2 37.5 -7t39.5 -9 l43 -15q14 -4 33 -6q16 -2 33.5 -2t36.5 6q16 6 29.5 18.5t21.5 26.5t16 33q14 -8 23 -24q8 -14 14 -36t4 -52q-2 -31 -9 -51.5t-17 -32.5q-10 -14 -25 -23q1 -16 1 -33t-1 -34q-2 -29 -9 -64t-26 -63q-18 -31 -45.5 -46.5t-56.5 -21.5q-22 -5 -44 -5l-22 1q27 45 45 90 q17 39 23 82q2 11 1 22q0 30 -13 58q-16 29 -40 41t-46 16q-25 6 -54 4q-29 2 -53 -16q-23 -16 -45 -51t-39 -107q-13 -61 -13 -111q0 -36 6 -66q16 -73 46 -120q33 -53 82 -86q-35 -35 -59 -80q-23 -41 -39 -97q-13 -45 -14 -102q0 -14 1 -28q6 -115 40 -168t71 -74 q31 -17 67 -17q14 0 29 3q-6 -45 -22 -82q-14 -31 -42 -55.5t-73 -24.5q-47 0 -73.5 8.5t-43.5 18.5q-18 12 -26 28q-14 -23 -37 -38q-20 -13 -50 -21q-12 -3 -26 -3q-22 0 -51 7q-47 10 -71.5 42t-37.5 65q-14 37 -16 84q28 -7 52 -6q28 0 52 8q39 14 70 62q29 45 29 144 v13q-6 86 -26.5 145.5t-43.5 98.5q-25 45 -55 73q39 25 65 76q24 43 38 117q7 36 7 82q0 48 -8 108q-12 63 -37.5 101t-54.5 59q-33 23 -68 31q-27 4 -51 -4q-23 -6 -48 -23.5t-46 -52.5q-20 -35 -21 -83v-14q0 -41 5 -77q8 -52 24 -105q-29 -4 -55 4q-23 8 -46.5 31 t-39.5 70q-14 42 -14 80v9q2 42 10 75q8 37 26 67q-18 14 -30 33q-10 16 -19.5 38.5t-7.5 55.5z" />
<glyph unicode="U" horiz-adv-x="1300" d="M2 1319q8 27 27 49q16 18 43.5 35.5t70.5 21.5q16 2 30 1q21 0 35 -3q24 -6 36 -12q12 -8 16 -18q14 12 35 20q16 8 41.5 12.5t60.5 -0.5q35 -4 57.5 -17t37.5 -26q14 -16 22 -32q-49 -4 -86 -35q-33 -27 -60.5 -82t-29.5 -158q-1 -20 -1 -39q-1 -76 13 -128 q16 -64 37 -99q23 -41 53 -61q-31 -35 -49 -89q-17 -45 -25 -115q-3 -23 -2 -49q0 -53 11 -118q16 -100 49 -154.5t68 -83.5q39 -33 86 -39h9q48 0 89 19q39 16 75.5 57t53.5 119q16 84 16 153q1 31 -3 59q-10 89 -30 146q-23 68 -57 111q23 31 43 74q16 37 30.5 91 t14.5 130v28q-1 96 -25 146q-28 57 -63 80q-34 21 -77 21q-8 0 -17 -1q10 25 29 45q14 16 36.5 30.5t53.5 16.5t53 -3t39 -11q18 -8 31 -16q23 18 49 30q22 9 54 17q15 4 32 4t35 -4q35 -8 52 -33t25 -53q8 -33 11 -70q-36 19 -67 19q-10 0 -19 -2q-35 -6 -67 -47.5 t-42 -145.5q-4 -34 -4 -65q0 -57 12 -101q18 -68 43 -110q29 -51 68 -84q-10 -6 -21 -17q-10 -10 -20 -26.5t-19 -44.5q-10 -29 -15 -69t-9 -81q-4 -47 -4 -96q-6 -41 -17 -84q-10 -39 -28.5 -86t-46.5 -94q-35 -57 -86.5 -87t-102.5 -45q-59 -16 -123 -18q-53 0 -106 14 q-45 12 -93 38t-85 75q-37 47 -58.5 107.5t-31.5 113.5q-12 61 -15 123q0 20 -4 43q-6 37 -29 113q-12 35 -25 55.5t-26 32.5q-14 14 -26 22q33 29 55 72q21 37 35 91q11 42 11 99q0 16 -1 33q-6 125 -33.5 184.5t-56.5 81.5q-30 20 -62 20q-8 0 -16 -1z" />
<glyph unicode="V" horiz-adv-x="1413" d="M2 1288q16 37 39 66q18 25 45 46t61 25q35 4 57.5 -3t39.5 -17q18 -10 30 -27q18 14 41 25q18 10 43 17t54 5q27 -4 47 -17t37 -30q18 -20 30 -43q-47 -8 -82 -39q-29 -27 -49 -80q-12 -33 -12 -81q0 -29 4 -64q10 -94 36 -159.5t52 -106.5q31 -49 68 -80 q-27 -33 -41 -78q-12 -41 -14 -99v-7q0 -56 24 -129q25 -80 48.5 -123t39.5 -64q20 -23 39 -24q29 -4 53 14q23 16 42.5 55t29.5 121q19 86 19 146v5q-1 62 -11 99q-12 43 -35 70q31 25 60 63q25 35 49 89.5t39 133.5q6 59 6 105v22q-2 54 -11.5 91.5t-24.5 61t-34 36.5 q-32 24 -73 24q-12 0 -25 -2q18 33 41 56q20 21 50 37q24 13 55 13q8 0 16 -1q37 -4 60.5 -13.5t35.5 -19.5q14 -12 23 -29q18 14 40 23q20 8 48 13t63 1t52.5 -23.5t27.5 -43.5q10 -29 12 -64q-22 6 -43 6q-17 0 -33 -4q-35 -8 -73.5 -36.5t-73.5 -96.5q-35 -69 -42 -147 q-4 -42 -4 -81q0 -33 3 -63q8 -78 29 -155q-31 -37 -58 -74q-23 -35 -44 -76t-31 -88q-30 -142 -30 -221q0 -14 1 -26q6 -81 29 -111q21 -30 54 -30q7 0 15 1q-6 -23 -20 -41q-12 -16 -36 -28.5t-61 -8.5q-37 2 -56 9t-30 18q-10 10 -14 24q-8 -16 -22 -26 q-12 -10 -33 -17.5t-49 -7.5q-31 0 -52.5 9.5t-35.5 19.5q-16 12 -27 28q-14 -20 -33 -34q-16 -14 -37.5 -24.5t-48.5 -10.5q-29 0 -48 14t-30 31q-14 20 -20 45q43 0 67 35q23 29 29 97q1 12 1 27q0 65 -23 173q-16 80 -48 137t-63 94q-37 43 -76 70q29 23 43 76 q13 47 13 126q0 78 -35 203q-16 78 -50 113t-67 47q-27 10 -57 10q-12 0 -25 -2z" />
<glyph unicode="W" horiz-adv-x="1892" d="M-4 1227q14 31 37 55q18 23 45.5 40t64.5 17q35 0 58.5 -9t40.5 -19q18 -12 28 -27q16 14 39 25q20 10 49 18t66 12h8q32 0 54 -15q24 -17 40 -40q18 -25 31 -57q-35 16 -65 16q-15 0 -29 -4q-35 -10 -68 -61.5t-35 -171.5v-14q0 -62 16 -116q18 -60 40 -102 q25 -53 57 -94q-12 -14 -20 -43q-9 -25 -13 -68q-2 -23 -2 -52q0 -26 2 -58q4 -68 16.5 -111t28.5 -65q18 -29 39 -41q20 2 41 24q16 18 31.5 58.5t26.5 117.5q6 55 6 94q0 15 -1 27q-3 45 -14 72q-10 29 -26 43q33 33 57 72q23 35 42.5 82t25.5 102q7 61 7 108q0 42 -6 74 q-12 68 -32 103q-23 41 -57 57q18 18 41 33q18 12 43.5 22t54.5 8q29 -4 48 -11t32 -15q14 -8 24 -21q12 14 35 25q16 10 44 16t67 6q39 -2 60.5 -14t31.5 -29q12 -18 14 -41q-43 0 -67 -34q-23 -29 -33 -95q-3 -20 -3 -45q0 -59 17 -147q16 -66 41 -107t47 -63 q27 -27 56 -39q-16 -27 -27 -63q-10 -32 -14 -82q-1 -16 -2 -35q0 -36 6 -80q8 -68 21.5 -111t27.5 -67q16 -29 33 -45q14 -4 28 18q12 18 26.5 61.5t25.5 131.5q7 51 7 89q0 14 -1 28q-4 46 -13 73q-8 31 -24 45q31 29 57 70q23 35 43.5 86t26.5 121q6 47 6 84 q-1 55 -13 90q-20 59 -49 86q-34 28 -80 28h-3q23 25 45 45q20 16 46.5 29.5t57.5 11.5q55 -6 78 -18q12 -8 18 -14q16 12 37 20q16 8 41 12t53 0q29 -4 45.5 -21.5t26.5 -37.5q10 -23 18 -51q-20 7 -39 7q-13 0 -26 -3q-29 -6 -60.5 -34t-58.5 -93q-29 -84 -34 -156 q-3 -40 -2 -75q0 -28 1 -52q6 -63 23 -114q-29 -25 -55 -62q-23 -31 -46.5 -76t-37.5 -104q-34 -131 -34 -214q0 -85 15 -136q16 -55 47 -80q-8 -10 -16 -17q-18 -14 -51 -6q-18 4 -28.5 10.5t-14.5 10.5q-6 6 -9 10q-16 -18 -34 -31q-16 -10 -36 -20t-40 -6q-23 2 -40 8 t-28 14q-14 8 -22 21q-6 -8 -17 -15q-10 -6 -23 -10t-36 -2t-35 10.5t-22 16.5t-17 20q31 12 51 51q15 36 23 102q2 17 2 37q0 60 -16 152q-4 53 -22.5 100.5t-39.5 86.5q-23 43 -53 84q8 8 14 30q4 16 8.5 48t4.5 83q-2 51 -11.5 84t-19.5 52q-12 23 -29 30q-6 2 -14 -6 t-17.5 -30.5t-23.5 -69.5q-10 -51 -11 -89q0 -6 1 -12q2 -42 10 -69q8 -31 27 -51q-16 -8 -37 -37q-16 -25 -37 -75t-41 -138q-23 -90 -24 -162v-12q0 -64 10 -111q8 -59 30 -104q-10 -4 -20 -9q-10 -4 -24.5 -4t-37.5 4t-34 9.5t-15 9.5q-6 6 -6 10q-14 -18 -33 -31 q-16 -10 -36.5 -20t-43.5 -6q-25 2 -41 8t-26 14t-17 21q-10 -12 -20 -21q-10 -8 -24.5 -14t-32.5 -8q-18 -4 -29.5 1t-20.5 9q-8 6 -14 14q31 31 51 84q15 47 23 124q2 23 3 49q0 63 -13 147q-14 74 -40 126t-51 87q-31 39 -63 63q25 55 37 119q9 48 9 110v13 q-1 70 -30 143q-29 72 -61.5 104.5t-61.5 43.5q-19 6 -37 6q-15 0 -30 -4z" />
<glyph unicode="X" horiz-adv-x="1454" d="M2 1321q18 33 43 57q23 22 57 38q30 14 71 14h11q49 -2 75 -10.5t36 -18.5q12 -10 14 -25q6 12 25 25q16 10 44 22.5t77 22.5q21 5 38 5q21 0 35 -7q26 -12 37 -29q12 -20 15 -47h-6q-44 0 -66 -27q-10 -12 -16.5 -31.5t-3 -50t16.5 -72.5t42 -97q27 -63 52.5 -98.5 t47.5 -51.5q25 -20 49 -25q14 2 29 31q12 25 26.5 79t30.5 157q1 12 1 23q1 61 -19 93q-22 38 -51 54t-67 16h-9q12 23 33 41q16 15 44 27q23 10 56 10h12q39 -2 63.5 -10.5t39.5 -18.5q16 -10 24 -24q20 14 45 26q23 10 53.5 18.5t71.5 8.5t63.5 -15.5t37.5 -31.5 q14 -20 22 -45q-7 1 -14 1q-40 0 -82 -20q-43 -20 -94 -71.5t-103 -155.5q-45 -86 -72.5 -149.5t-43.5 -110.5q-18 -53 -27 -94q-1 -4 -1 -9q0 -23 15 -63q14 -41 50 -113.5t108 -189.5q61 -111 123.5 -170t114.5 -88q59 -33 114 -35q-4 -25 -24 -45q-16 -16 -52 -30.5 t-98 -14.5q-61 0 -101 6t-63 16q-27 10 -41 25q-10 -16 -30 -27q-16 -10 -47 -17q-20 -4 -46 -4q-15 0 -32 1q-47 4 -68.5 12t-32.5 19q-10 10 -8 24q35 14 62 39q23 24 39 58q13 28 13 67q0 10 -1 21q-31 111 -63.5 164t-61.5 73q-24 17 -46 17q-9 0 -18 -3 q-23 -14 -41 -38q-16 -23 -31.5 -61t-23.5 -99q-8 -45 -8 -79q0 -32 7 -53q15 -44 42 -65q31 -23 74 -24q-18 -25 -43 -43q-23 -17 -53 -27q-17 -6 -35 -5q-14 0 -29 3q-37 6 -60.5 16.5t-37.5 20.5q-16 10 -27 24q-10 -16 -31 -28q-16 -10 -46.5 -20.5t-77.5 -12.5 q-7 -1 -14 -1q-37 1 -60 19q-27 22 -39 47q-14 31 -19 72q38 -18 77 -19q14 0 28 3q47 6 105.5 42t119.5 132q47 76 80 142.5t51 115.5q23 57 33 106q-12 33 -37 84q-23 43 -60.5 111t-97.5 162q-74 137 -132 203.5t-99 89.5q-35 19 -63 19q-11 0 -21 -3z" />
<glyph unicode="Y" horiz-adv-x="1392" d="M0 1278q12 33 35 59q18 23 48 44.5t77 25.5q24 2 42 2t32 -2q26 -4 42 -10q18 -8 25 -21q14 12 35 23q39 20 98 26q31 2 56.5 -9t44.5 -25q23 -16 38 -39q-49 -2 -73 -35q-23 -29 -25 -95v-5q0 -65 45 -185q33 -104 62.5 -155.5t52.5 -71.5q27 -23 49 -19q12 0 33 29 q16 25 38.5 81t51.5 169q25 96 25 156q0 19 -2 35q-11 63 -37 90q-27 27 -67 27q-6 0 -13 -1q8 18 26 33q16 12 41 19q13 4 30 4q16 0 36 -3q39 -8 60.5 -16t31.5 -16q12 -8 16 -17q23 16 47 27q23 10 49.5 17t59.5 5q31 -4 52.5 -21.5t37.5 -39.5q16 -25 29 -57 q-14 2 -27 2q-30 0 -61 -9q-39 -10 -86 -42.5t-94 -102.5q-82 -117 -111 -199t-33 -135q-1 -9 -1 -18q0 -49 20 -82q-37 -25 -66 -70q-25 -39 -44 -103q-17 -59 -17 -145v-18q0 -68 10 -114t25.5 -76.5t35 -47t37.5 -22.5q17 -6 36 -6q31 0 67 16q-12 -41 -33 -72 q-16 -27 -46 -46q-25 -16 -57 -16q-7 0 -14 1q-43 4 -68.5 14.5t-42.5 20.5q-18 10 -26 24q-12 -18 -33 -30q-16 -12 -45 -21q-24 -8 -56 -8h-14q-41 2 -65.5 20.5t-38.5 38.5q-16 23 -25 54q8 -1 16 -1q43 0 77 19q35 20 62.5 70.5t29.5 156.5q0 104 -27 172t-61 109 q-39 47 -91 74q25 37 29 90q1 8 1 17q0 42 -16 102q-20 73 -81 180q-41 76 -92 111.5t-97 50.5q-42 13 -85 13z" />
<glyph unicode="Z" horiz-adv-x="1118" d="M5 1198q7 38 18 59q12 23 30 33q-12 6 -20 21q-8 12 -15.5 34.5t-11.5 61.5q-4 35 8.5 60.5t28.5 41.5q18 18 43 31q2 -12 8 -24q10 -27 37 -58q14 -16 49 -27.5t74 -19.5t75 -11t54 -1q37 6 76 10q20 2 41 4l243 19q33 2 60 -2q23 -4 42 -10.5t23 -22.5t-9 -49t-32 -66 q-23 -39 -49 -82l-129 -231q-10 -18 -18 -39q-8 -16 -13.5 -37t-9.5 -37q-3 -25 -3 -45q0 -9 1 -19q2 -28 6 -49q6 -23 15 -38q-59 -47 -111 -99q-43 -43 -83 -95t-56 -101q-19 -60 -27 -108q-5 -34 -6 -62q0 -11 1 -21q3 -35 12.5 -58.5t23.5 -37.5q31 -37 86 -39 q31 -4 63 -4h21q35 2 78 8t78 29q72 51 99.5 102t33.5 92q3 15 3 30q0 31 -12 60q25 -18 48 -43q18 -23 34.5 -56.5t20.5 -78.5q0 -12 1 -23q0 -32 -5 -56q-6 -32 -17 -54q-10 -25 -26 -43q8 -20 12 -41q4 -18 4 -38.5t-4 -37.5q-6 -16 -17.5 -26t-21.5 -17q-12 -8 -26 -12 q-2 18 -11 35q-6 14 -15 29.5t-24 29.5q-25 25 -43 29q-8 2 -16 0q-51 4 -96 10q-39 4 -75 7t-50 3h-340q-37 0 -68 5q-27 4 -48 8t-25 14t8 40t28 62q18 37 43 84q8 16 21 50q20 51 63 184q14 57 14 99v13q-2 46 -14 74q-10 35 -30 56q51 31 102 69q43 35 90 83t82 108 q76 109 94 175q10 38 10 66q0 21 -6 37q-14 41 -57 60q-31 8 -68 8q-31 0 -68.5 -10.5t-76.5 -38.5q-76 -53 -100 -116q-22 -58 -21 -109v-9q2 -65 29 -131q-39 10 -72 33q-29 20 -54.5 58t-33.5 104q-4 35 -4 63q0 23 3 41z" />
<glyph unicode="[" horiz-adv-x="1705" d="M123 -379q35 70 35 221v1444q0 68 -9.5 123t-17.5 78l-8 20l4 2q70 -35 221 -34h68q68 0 123 8t75 16l23 10l4 -2q0 -23 -13.5 -56.5t-23.5 -41.5v-4q10 -8 23.5 -41t13.5 -55l-4 -2q-70 35 -221 34h-72v-1554h72q68 0 123 8t75 17l23 10l4 -2q0 -23 -13.5 -55.5 t-23.5 -40.5v-5q10 -8 23.5 -41.5t13.5 -56.5l-4 -2q-70 35 -221 35h-68q-68 0 -123 -9.5t-78 -17.5l-20 -8z" />
<glyph unicode="\" horiz-adv-x="858" d="M41 1473l2 4q70 0 145 -58h5q33 57 94 58l2 -4q-14 -72 33 -222l428 -1382q20 -66 45.5 -121t40.5 -78l16 -22l-2 -4q-70 0 -145 57h-5q-33 -57 -94 -57l-2 4q14 72 -33 221l-428 1382q-20 66 -45.5 121t-40.5 78z" />
<glyph unicode="]" horiz-adv-x="550" d="M41 -180l4 2q70 -35 221 -35h72v1554h-72q-68 0 -123 -9t-77 -17l-21 -8l-4 2q0 23 13.5 55.5t23.5 40.5v4q-10 8 -23.5 42t-13.5 56l4 2q70 -35 221 -34h68q68 0 123 8t75 16l23 10l4 -2q-35 -70 -35 -221v-1444q0 -68 8.5 -123t16.5 -75l10 -23l-4 -2q-70 35 -221 35 h-68q-68 0 -123 -9.5t-77 -17.5l-21 -8l-4 2q0 23 13.5 56.5t23.5 41.5v5q-10 8 -23.5 40.5t-13.5 55.5z" />
<glyph unicode="^" horiz-adv-x="1001" d="M41 682q68 84 143 221l279 500q18 31 51 31t51 -31l279 -500q33 -61 68.5 -116.5t54.5 -79.5l20 -25l-2 -4q-92 0 -145 57h-4q-10 -23 -32 -40t-42 -17l-2 4q-20 82 -94 221l-152 295l-152 -295q-33 -61 -56 -116.5t-32 -79.5l-6 -25l-2 -4q-20 0 -41.5 17.5t-31.5 39.5 h-5q-53 -57 -145 -57z" />
<glyph unicode="_" horiz-adv-x="1243" d="M-10 -264h1247v-146h-1247v146z" />
<glyph unicode="`" horiz-adv-x="737" d="M38 1695.5q-3 18.5 9 43.5q12 23 40 22.5t56 -10.5q33 -12 72 -37l98 -63l258 -52v-59h-356l-139 100q-18 10 -27 25q-8 12 -11 30.5z" />
<glyph unicode="a" horiz-adv-x="1001" d="M2 113q33 -12 61 0q25 10 50.5 48t40.5 128q14 78 14 136v13q-2 62 -10 103q-8 47 -27 75q25 6 47 31q18 23 38 67t32 124q7 56 7 99q0 33 -4 57q-9 58 -26 85q-20 35 -49 47q10 23 27 43q14 16 35.5 33t54.5 23q31 6 53.5 -1t38.5 -18q18 -12 29 -30q4 16 18 26 q12 10 36 18q19 6 48 5h16q41 -2 66 -16.5t41 -32.5q18 -23 27 -50q-33 -23 -54 -59q-18 -33 -28 -84q-3 -18 -3 -40q0 -39 11 -89q14 -78 32.5 -126t34.5 -75q18 -33 37 -45q-16 -39 -22 -92q-4 -32 -4 -72q0 -18 1 -36q2 -62 25 -140t47.5 -110.5t47.5 -42.5q25 -10 53 2 q-4 -31 -13 -54q-8 -20 -23 -36.5t-42 -20.5q-29 -4 -49.5 0t-36.5 12q-18 8 -33 21q-12 -14 -31 -23q-16 -8 -36.5 -13t-42.5 3q-25 6 -39.5 19.5t-22.5 29.5t-12 37q27 6 49 23q18 13 32 39q11 20 12 54q0 9 -1 19q-2 59 -22.5 93t-45.5 51q-29 18 -63 22q-35 -2 -64 -18 q-25 -14 -45 -43t-22 -84q-1 -12 -1 -23q0 -41 12 -65q15 -31 36 -47q23 -18 53 -25q-12 -20 -28 -39q-14 -16 -33 -28.5t-41 -14.5q-27 -4 -44.5 1t-27.5 11q-12 8 -20 19q-14 -16 -35 -25q-16 -8 -39 -12t-47 6q-27 8 -41 25.5t-23 36.5q-8 23 -12 45zM348 629 q-4 -25 4 -45q6 -16 21.5 -31.5t50.5 -17.5q33 -2 45 14t16 37q4 23 -4 53q-10 61 -20 111q-10 41 -19.5 75.5t-17.5 38.5q-10 2 -22.5 -33.5t-24.5 -80.5q-14 -53 -29 -121z" />
<glyph unicode="b" d="M4 166q47 -25 88 -25h6q37 2 69 34t42 124q1 15 1 30q0 67 -16 115q-18 60 -44 99q-31 45 -70 75q27 12 49 50q17 31 33 86q14 49 14 131v22q-4 96 -28.5 138t-53.5 55q-18 7 -37 7t-41 -7q12 31 33 55q16 19 44 37q23 14 54 15q7 0 15 -1q41 -4 65.5 -16t38.5 -27 q16 -16 25 -35q25 29 61 52q31 18 78 33.5t113 15.5q78 -6 135 -30.5t94 -53.5q43 -33 74 -74q10 -12 22 -29q10 -14 22.5 -32.5t24.5 -42.5q12 -23 26.5 -37.5t27.5 -24.5q14 -10 28 -16q-16 -10 -36 -29q-16 -16 -37 -39.5t-37 -60.5q-18 -35 -34.5 -56.5t-31.5 -33.5 q-16 -14 -28 -21q25 -12 47 -28q20 -16 40.5 -38t32.5 -53q16 -43 36 -75.5t36 -55.5q20 -25 39 -43q-16 -10 -29 -22q-12 -12 -23 -29.5t-22 -42.5q-12 -31 -27.5 -58.5t-29.5 -47.5q-16 -23 -33 -43q-35 -37 -80 -64q-39 -23 -94 -39q-40 -12 -86 -12q-17 0 -35 2 q-68 6 -117 23.5t-81 35.5q-37 23 -66 50q-8 -16 -27 -31q-16 -12 -45.5 -23.5t-76.5 -15.5q-8 -1 -15 -1q-36 0 -61 16q-29 20 -45 44q-18 29 -27 68zM346 893q0 -49 14.5 -91t40 -74t59.5 -50.5t72 -18.5q39 0 74 18.5t60.5 50.5t40 74t14.5 91t-14.5 91t-40 74t-60.5 50 t-74 18t-72.5 -18t-59 -50t-40 -74t-14.5 -91zM362 344q0 -51 15.5 -96t43.5 -78t64.5 -52.5t77.5 -19.5t77 19.5t63.5 52.5t43 78t15.5 96q0 49 -15.5 93t-43 77t-63.5 52.5t-77 19.5t-77.5 -19.5t-64.5 -52.5t-43.5 -77t-15.5 -93z" />
<glyph unicode="c" horiz-adv-x="1085" d="M2 596q16 10 31 22q12 10 26.5 27t24.5 35q10 16 18.5 39.5t12.5 44.5q6 23 8 47q4 55 18 109q12 47 38 100t71 100q57 53 116.5 75t108.5 26q13 1 27 1q43 0 84 -10q33 -10 65 -18q29 -6 58.5 -7t54.5 11q23 10 37 24.5t20 26.5q8 14 8 29q14 -8 25 -21q23 -25 25 -71 q0 -27 -5.5 -50.5t-13.5 -39.5q-8 -20 -20 -37q14 -18 22 -43q8 -22 10 -56v-14q0 -29 -6 -67q-10 -47 -37.5 -75t-58.5 -42q-37 -16 -78 -23q31 41 43 90q6 26 6 57q0 20 -2 40q-6 56 -51 121q-20 31 -48 46t-54 21q-25 6 -51 6h-13q-43 -6 -80 -24q-33 -16 -64.5 -44 t-47.5 -77q-30 -91 -30 -156q0 -15 2 -29q9 -72 36 -116q31 -51 82 -78q-10 -12 -21 -29q-10 -14 -19 -32.5t-20 -40.5q-14 -35 -20 -82q-2 -16 -2 -32q0 -32 8 -64q12 -50 46 -98t100 -85q46 -11 83 -11q15 0 31 2q48 7 84.5 30.5t60 57.5t40.5 73q35 90 36 215q23 4 41 -6 q16 -10 29.5 -34t17.5 -75q1 -12 1 -23q0 -40 -11 -75q-14 -45 -35 -80q-23 -39 -53 -74q-51 -57 -119 -92q-57 -31 -135 -43q-20 -3 -42 -3q-61 0 -132 25q-72 16 -121 63.5t-78 98.5q-35 59 -55 129l-22 68q-10 29 -17.5 55.5t-11.5 42.5q-4 14 -17.5 34.5t-27.5 39.5 q-19 22 -37 45z" />
<glyph unicode="d" d="M4 1077q4 35 21 62q14 23 40.5 42t73.5 21q47 0 73 -14t40 -31q16 -20 22 -47q27 20 58 43q27 16 58.5 34.5t66.5 29.5q28 8 59 8h12q38 -2 74 -6q39 -6 80 -17q31 -10 57 -24q23 -12 48.5 -32t46.5 -42q18 -25 34.5 -59.5t26.5 -67.5q12 -37 23 -76q2 -27 8 -51 q4 -23 10 -48t12 -48q4 -23 17.5 -46.5t25.5 -39.5q14 -23 33 -39q-14 -14 -29 -35q-12 -16 -25.5 -41t-23.5 -55q-10 -31 -17 -57.5t-11 -47.5q-6 -23 -9 -43q-4 -23 -12 -49q-6 -23 -17.5 -54.5t-29.5 -66.5q-31 -53 -68 -85t-67 -52q-37 -23 -72 -35q-27 -6 -57 -10 q-27 -4 -60.5 -4t-68.5 6q-47 6 -77 18.5t-50 24.5q-23 14 -37 29q-12 -25 -35 -43q-18 -17 -46 -27q-16 -6 -36 -5q-15 0 -33 3q-41 8 -64.5 32.5t-37.5 51.5q-16 31 -23 68q25 -12 48 -19q20 -4 42.5 0t41.5 27q16 23 27 48t16 50q6 27 6 57q2 20 -2 45q-4 23 -10.5 50.5 t-16.5 60.5q-12 33 -28.5 54.5t-32.5 35.5q-18 16 -37 25q10 8 22 24q10 14 23.5 37t25.5 58t16.5 66.5t6.5 53.5q2 27 0 52q4 31 0 61q-4 27 -12.5 56.5t-28.5 56.5t-42 34t-38 5q-23 -2 -41 -13zM332 915q-6 -40 -6 -74q0 -40 8 -71q14 -59 37 -98q25 -45 63 -76 q-23 -14 -41 -49q-15 -29 -27 -81q-9 -39 -9 -94q0 -19 1 -40q4 -82 28 -131t52 -76q33 -33 76 -45q15 -2 29 -2q39 0 75 16q41 18 79.5 65.5t50.5 147.5q4 38 4 70q0 39 -6 71q-12 56 -33 91q-23 39 -56 61q29 59 48 125q16 55 20 123q1 10 1 20q0 57 -19 113 q-23 66 -56 98.5t-63 46.5q-37 16 -74 17q-43 -4 -80 -29q-31 -23 -60.5 -68t-41.5 -131z" />
<glyph unicode="e" horiz-adv-x="1067" d="M2 76q20 0 49 8t54.5 31.5t43 67.5t17.5 116q0 55 -13.5 102.5t-34 87t-44.5 71t-49 58.5q6 2 26.5 16.5t42 51.5t39 101.5t17.5 162.5q0 57 -14.5 97t-36 66t-47 37t-50.5 15q31 18 70 39t73 21q35 0 58.5 -25.5t34.5 -48.5q47 27 113.5 50.5t135.5 23.5 q66 0 122.5 -23.5t92.5 -50.5q6 -2 15.5 -4t19.5 -2q49 0 80 40t45 87q10 -10 22.5 -39t12.5 -76q0 -37 -8 -53.5t-17 -22.5q10 -27 17.5 -61.5t7.5 -87.5q0 -76 -25.5 -129t-46.5 -80q-4 39 -24.5 101.5t-64.5 122t-112.5 103.5t-166.5 44q-33 0 -60.5 -8.5t-48 -32 t-33 -65.5t-12.5 -107q0 -113 42 -164t85 -51q4 0 21.5 9t37 27.5t35 47t15.5 67.5q0 10 -2 21.5t-9 19.5q16 -4 36 -11t35 -20.5t25.5 -35t10.5 -52.5q0 -68 -16.5 -92t-26.5 -29q8 -10 13 -29.5t5 -60.5q0 -45 -7 -73.5t-17.5 -47t-22.5 -26.5t-20 -12q2 10 2 32 q0 20 -8.5 45t-23.5 47.5t-37.5 38t-53.5 15.5q-8 0 -29.5 -7.5t-43 -31t-39 -67.5t-17.5 -115q0 -49 20.5 -83t51 -55.5t68.5 -31t75 -11.5q33 8 81 29t95 59.5t85 101t52 159.5q27 -4 51.5 -42t24.5 -128q0 -74 -11.5 -91.5t-19.5 -17.5q16 -29 25.5 -58.5t9.5 -60.5 q0 -47 -25.5 -69.5t-50.5 -26.5q-12 27 -30.5 53.5t-53.5 26.5t-65.5 -13.5t-61 -28.5t-60.5 -27.5t-62 -12.5q-55 0 -96.5 9t-69.5 20q-33 12 -58 28q-20 -23 -50 -41t-73 -18t-69.5 11t-43 24.5t-23.5 27t-7 17.5z" />
<glyph unicode="f" horiz-adv-x="983" d="M4 1087q4 41 21 72q14 27 41 47q24 19 65 19h8q47 -4 69.5 -15.5t33.5 -25.5q10 -16 12 -37q23 16 45 33q20 14 45 26.5t51 18.5q27 4 56.5 0t54.5 -11q29 -8 57 -16q31 -4 60 -6q25 -2 52 -1t48 7q18 6 30.5 21.5t22.5 31.5q8 20 17 43q6 -14 12 -30q4 -14 8 -34t2 -40 q-2 -23 -8 -40t-14 -32q-8 -16 -21 -31q8 -10 14 -28q4 -16 8 -43q2 -17 2 -40q0 -13 -1 -28q-4 -43 -17.5 -68.5t-29.5 -41.5q-20 -18 -43 -27q5 36 5 70q0 41 -8 77q-12 55 -52 103.5t-132 56.5q-72 0 -112.5 -30.5t-61.5 -67.5q-23 -43 -31 -98q-3 -25 -3 -50 q0 -32 5 -63q6 -45 28 -88t69 -66q43 -18 75.5 -21t56 6t38 26.5t24.5 40.5q20 43 20 105q0 11 -1 22q16 -8 26 -25q10 -14 17.5 -36.5t9.5 -59.5q0 -37 -4 -60.5t-8 -38.5q-6 -16 -15 -22q6 -8 15 -23q6 -12 11 -33.5t5 -56.5t-7 -57.5t-16 -36.5q-10 -16 -22 -27 q0 61 -21 107q-16 39 -54 67q-30 23 -78 23q-14 0 -29 -2q-43 -10 -69 -32.5t-42 -45.5q-18 -27 -27 -59q-8 -35 -10 -72q-1 -9 -1 -19q0 -25 4 -54q5 -40 24 -83q16 -43 45 -57t55 -14q31 0 64 12q-4 -35 -17 -63q-10 -25 -32.5 -46.5t-61.5 -23.5h-19q-28 0 -46 4 q-25 6 -41 16q-18 10 -29 25q-6 -12 -19 -21q-12 -8 -33.5 -15t-56.5 -9t-57.5 18.5t-36.5 46.5q-16 29 -24 68q25 -7 46 -7q19 0 35 5q31 10 56 45q22 32 22 108v13q-2 74 -19.5 127t-39.5 88q-25 41 -55 70q33 14 57 49q23 29 38 83q11 39 11 97q0 23 -2 49q-4 68 -12 115 t-21.5 75.5t-29 44t-29.5 19.5q-9 2 -17 2q-30 0 -61 -25z" />
<glyph unicode="g" d="M4 582q12 6 27 18q12 10 26.5 26.5t26.5 41.5t19.5 54.5t11.5 55.5q6 31 8 62q6 39 22 82q12 35 35 78.5t58 84.5q33 41 71.5 65t73.5 40q39 16 80 27q14 2 37 4q18 2 49 1t72 -5q51 -4 90 -28t65 -50q31 -33 53 -70q0 -10 9 -25q6 -12 16 -30.5t31 -46.5 q20 -29 38.5 -42.5t32.5 -19.5q16 -8 31 -6q-4 -8 -12 -16q-8 -6 -21.5 -12.5t-35.5 -10.5q-25 -4 -41.5 -4t-26.5 2q-12 2 -19 4q2 -10 -4 -22q-4 -10 -17 -23.5t-40 -25.5q-27 -14 -45 -18.5t-33 -2.5q-16 0 -28 6q18 14 32 37q12 18 23.5 43t15.5 55q1 11 1 22 q0 43 -14 71q-17 34 -34 63q-18 27 -72 47q-34 14 -75 14q-22 0 -45 -4q-35 -4 -62.5 -22.5t-46.5 -40.5q-23 -25 -39 -57q-14 -16 -22 -41q-8 -23 -15.5 -57t-7.5 -87t14.5 -91t32.5 -64q23 -31 49 -52q-25 -23 -43 -53q-16 -27 -28 -67q-11 -34 -11 -78v-15 q4 -72 13.5 -114.5t21.5 -67.5q12 -29 31 -41q10 -20 29 -37q16 -14 40.5 -26.5t63.5 -14.5q10 -1 19 -1q35 0 61 13q33 15 55 33q23 23 39 52q8 12 17 36q6 20 11 55.5t5 88.5q-2 53 -21.5 89t-42.5 58q-27 25 -63 41q12 16 29 31q14 12 33.5 23.5t43.5 15.5q23 4 42.5 -1 t35.5 -14q18 -8 33 -20q14 12 33 20q16 8 37.5 13.5t50.5 3.5q29 -4 45 -17.5t27 -29.5q10 -18 18 -41q-23 6 -45 4q-18 -2 -37.5 -12.5t-32.5 -36.5q-14 -29 -19 -59.5t-7 -55.5q-2 -31 0 -57q-2 -31 2 -62q2 -29 8 -60.5t16 -62.5t23.5 -47t28.5 -22q16 -8 32 -8 q-2 -20 -12 -37q-10 -14 -29.5 -23.5t-54.5 -5.5q-37 4 -62.5 14.5t-41.5 22.5q-20 14 -33 31q-18 -12 -49 -25q-27 -10 -69 -21.5t-101 -21.5q-26 -4 -50 -4q-31 0 -61 7q-51 13 -88 36q-43 25 -80 59q-8 8 -16 21q-8 10 -20.5 29.5t-26.5 48.5q-16 29 -27.5 58.5 t-19.5 55.5q-8 31 -17 60q-2 14 -8 35q-4 16 -13.5 37.5t-23.5 46.5q-14 23 -29.5 41t-27.5 28q-15 13 -29 21z" />
<glyph unicode="h" d="M0 1098q14 33 35 57q16 23 41.5 41t60.5 23q35 4 56.5 -1.5t31.5 -13.5q12 -8 19 -20q12 14 28 22q14 8 36 12.5t52 0.5q29 -4 51.5 -23.5t39.5 -42.5q18 -25 30 -55q-36 16 -67 16q-16 0 -31 -4q-37 -12 -65 -64q-22 -41 -23 -128q0 -24 2 -52q0 -86 31.5 -129t70.5 -59 q38 -17 85 -17q10 0 20 1q15 -2 29 -2q36 0 67 14q37 16 69.5 63t39.5 146q1 17 1 32q0 74 -24 111q-29 45 -63 61q-31 13 -69 13q-15 0 -30 -2q20 33 45 59q23 23 50.5 42.5t58.5 19.5t51.5 -9.5t32.5 -21.5q14 -14 22 -31q8 18 25 31q12 10 33.5 19.5t52.5 11.5 q29 0 53.5 -21.5t40.5 -48.5q20 -31 35 -70q-29 10 -53 13q-23 2 -45.5 -5.5t-36.5 -33.5q-14 -25 -21.5 -51.5t-11.5 -49.5q-6 -27 -6 -51q-2 -23 -2 -49q0 -25 4 -58.5t14 -74.5t22.5 -65.5t22.5 -39.5q12 -16 27 -22q-14 -14 -25 -31q-10 -14 -19 -32.5t-15 -39.5 q-8 -18 -10.5 -40.5l-4.5 -40.5q-2 -23 -2 -43q2 -37 6 -74q4 -31 10.5 -62.5t18.5 -54.5t31.5 -33t38.5 -14q23 -6 47 -4q-6 -31 -17 -53q-10 -20 -28.5 -39t-48.5 -25q-33 -6 -55.5 -2t-39.5 10q-18 8 -32 19q-16 -18 -37 -27q-18 -8 -43 -10t-54 10t-44 33.5t-25 44.5 q-10 25 -15 55q20 -14 43 -18q18 -4 39 6t37 45q14 35 18 78q3 30 4 58q0 12 -1 24q-2 45 -8 90q-8 45 -31 82q-20 32 -60 56q-37 23 -98 22h-10q-70 -2 -111 -27t-63 -53q-27 -35 -37 -78q-6 -37 -8 -78q-1 -12 -1 -24q0 -25 3 -55q4 -44 16 -85q10 -41 35 -51t51 -6 q31 6 66 27q1 -12 1 -23q0 -22 -5 -41q-6 -25 -22.5 -48.5t-49.5 -33.5q-35 -10 -62.5 -7t-48.5 11q-23 8 -43 23q-25 -12 -47 -21q-20 -6 -44.5 -10t-45.5 4q-23 6 -37 26.5t-24 43.5q-10 25 -19 57q14 -10 33 -10q14 0 32.5 8t37.5 37q18 27 26.5 56.5t12.5 54.5 q4 29 2 57q0 29 -2 57q-2 25 -6.5 55.5t-14.5 59.5t-23.5 48t-25.5 32q-14 14 -29 24q14 8 29 21q27 23 47 67q10 23 13 51.5t8 55.5q2 29 4 59q2 23 0 49q-2 23 -7.5 57t-15.5 75q-12 41 -33.5 53t-44.5 12q-24 0 -55 -14z" />
<glyph unicode="i" horiz-adv-x="653" d="M4 133q25 -6 45 -6q78 0 106.5 53t28.5 152q0 86 -18.5 156.5t-73.5 125.5q31 47 56.5 123t25.5 158q0 27 -3 64.5t-13.5 70.5t-29.5 56.5t-52 23.5q-37 0 -72 -27q4 20 14.5 46t27.5 48.5t45 37t69 14.5q37 0 61.5 -13.5t36.5 -31.5q6 12 26.5 26.5t77.5 14.5 q53 0 82 -38t41 -75q-4 2 -20 2q-10 0 -32.5 -7t-45 -28.5t-40 -59.5t-17.5 -97q0 -92 13 -164t58 -137q-31 -31 -48 -71t-25.5 -78t-9.5 -71.5t-1 -54.5q0 -41 4.5 -79t16.5 -66.5t37.5 -46t68.5 -17.5q23 0 41 8q0 -25 -4 -50t-16 -45.5t-37 -34t-68 -13.5t-67.5 11.5 t-34.5 21.5q-10 -14 -36.5 -24.5t-65.5 -10.5q-43 0 -72 12.5t-46.5 33t-24.5 43t-9 44.5z" />
<glyph unicode="j" horiz-adv-x="983" d="M-2 43.5q2 22.5 8 38.5q8 20 19 35q-12 33 -19 69q-2 18 -2 37q0 15 1 30q3 36 22 71q18 33 40.5 52t43.5 30q23 10 49 14q-16 -25 -25 -51q-8 -23 -11 -53q-1 -8 -1 -15q0 -24 8 -51q16 -47 35.5 -73.5t38.5 -41.5q23 -16 43 -20q25 -6 49 -4q23 2 49.5 10t54.5 33 q29 25 44.5 54.5t23.5 57.5q8 31 12 64q4 35 4 69q0 29 -2 64t-8 67q-8 31 -20.5 49.5t-22.5 28.5q-14 12 -29 19q14 14 29 32q29 35 43 82q6 25 8 46.5t2 37.5v37q2 26 2 51.5t-2 49.5q-4 41 -12 77.5t-24 53.5q-18 16 -36 20t-34 2q-19 -2 -33 -10q10 33 27 59 q14 23 37.5 41.5t60.5 20.5q37 0 58.5 -6.5t31.5 -14.5q12 -8 17 -22q4 12 16 22q10 8 34 16q18 5 48 5h16q41 -2 65.5 -20.5t39.5 -41.5q16 -27 22 -59q-20 2 -43 -2q-18 -4 -38.5 -12.5t-35.5 -24.5q-16 -16 -24 -33.5t-12 -34.5q-6 -18 -9 -36q-4 -10 -6 -29 q-2 -16 -3 -43v-11q0 -24 3 -57q4 -41 18.5 -74.5t32.5 -56.5q20 -27 48 -49q-14 -4 -25 -14q-25 -20 -41 -74q-10 -31 -15 -55.5t-7 -40.5q-2 -20 -3 -35q-2 -27 0 -55q0 -25 3.5 -56.5t11.5 -64.5q10 -35 27.5 -51.5t35.5 -22.5q23 -8 47 -4q-12 -23 -30 -41 q-16 -16 -39 -27.5t-51 -7.5q-31 2 -46.5 8.5t-23.5 14.5t-10 18q-20 -16 -43 -35q-20 -16 -48 -34.5t-63 -38.5q-47 -25 -92 -32q-35 -5 -64 -5h-16q-41 2 -78 14q-10 4 -18 6q-23 4 -45 -6q-16 -8 -20.5 -21.5t-4.5 -29.5q0 -18 4 -37q-18 2 -37 10q-16 8 -30.5 22.5 t-22.5 43.5q-10 29 -8 51.5z" />
<glyph unicode="k" d="M4 145q16 -4 35 -4q16 0 35.5 5.5t38.5 21.5q18 16 27.5 33.5t13.5 34.5q6 18 6 38q1 14 1 31t-1 35q-2 31 -6 71t-17 83q-14 43 -29.5 70.5t-31.5 43.5q-18 18 -37 29q10 0 22 10q10 8 25.5 27.5t36.5 54.5q18 35 27.5 68.5t13.5 58.5q4 29 2 53q0 33 -4 68 q-4 29 -12.5 59.5t-22.5 53.5q-16 23 -34.5 29.5t-35.5 8.5q-21 2 -41 -4q16 31 35 56q16 23 37 39t43 18q23 2 43.5 -7t36.5 -20q18 -12 33 -28q23 18 47 30q23 10 49.5 16.5t54.5 -3.5q29 -10 43.5 -29.5t20.5 -38.5q6 -23 4 -47q-20 14 -43 12q-18 -4 -43 -23.5 t-47 -74.5q-33 -104 -33 -164.5t14 -93.5q14 -37 45 -53q23 -6 45 -6q20 0 44 7t49 25q23 16 39 44t26 55q12 31 21 63q2 4 6 23q4 16 7 43.5t7 81.5q2 26 2 47.5t-2 39.5q-4 36 -8 58q-6 27 -14 43h26q10 -2 23.5 -4t27.5 -8q23 -10 41 -33q8 -10 15 -23q10 14 26 27 q14 10 36 19.5t50 13.5q29 4 51.5 1t38.5 -7q18 -6 29 -13q16 -14 27 -34q10 -18 12 -45v-9q0 -24 -8 -55q-14 -37 -28.5 -60.5t-29.5 -35.5q-16 -14 -32 -21q4 12 8 27q8 25 0 47q-12 18 -35 27q-10 4 -22 6q-18 0 -37 -6q-16 -4 -34 -13.5t-34 -25.5t-26.5 -38t-18.5 -40 q-8 -23 -14 -45l-6 -31q-6 -31 -19 -86q-8 -29 -16 -48t-15 -30q-8 -12 -14 -18q16 -2 33 -8q14 -4 28.5 -11.5t28.5 -19.5q29 -25 51.5 -70t32.5 -80q4 -18 14.5 -49.5t20.5 -64.5q10 -37 22 -80l50 -123q8 -12 16 -20t20.5 -14.5t28.5 -6.5t29.5 6t23.5 17q10 10 21 24 q0 -39 -10 -74q-10 -29 -31 -55.5t-59 -34.5q-18 -3 -33 -3q-18 0 -32 4q-26 7 -42 20q-18 14 -29 35q-12 -20 -30 -35q-16 -12 -40 -22.5t-59 -8.5t-55 29.5t-31 58.5q-12 37 -16 82q20 -18 41 -27q16 -8 34.5 -9t35.5 16q14 16 17 37.5t1 43.5q-2 25 -8 52q-8 29 -17 55 q-8 23 -21 50.5t-32 53.5q-18 27 -34.5 42.5t-26.5 25.5q-14 10 -25 16q-16 6 -37 11q-12 3 -26 3q-28 0 -60 -12q-23 -10 -38 -21t-25 -22q-10 -12 -17 -24q-16 -33 -24 -70q-8 -33 -8 -76t16 -96t43 -74.5t53 -25.5q29 -6 62 4q-2 -33 -13 -57q-10 -23 -29.5 -42.5 t-54.5 -23.5t-59.5 2t-40.5 16q-18 10 -29 25q-20 -14 -41 -22q-16 -10 -37.5 -16.5t-39.5 -4.5q-41 12 -63.5 35.5t-33.5 48.5q-12 27 -12 59z" />
<glyph unicode="l" horiz-adv-x="985" d="M2 152q25 -10 47 -15q20 -4 42 1t38 24q16 18 24.5 47t12.5 57q3 22 3 45q0 11 -1 23q2 23 0 49q-2 23 -5 51.5t-11 59.5q-8 29 -20.5 55t-22.5 45q-14 23 -29 41q12 8 22 20q10 10 19.5 25.5t17.5 38.5t13.5 53.5t9.5 58.5l8 70q0 27 -2 53q-4 23 -9 51.5t-20 57.5 q-14 27 -33.5 39t-37.5 16q-22 6 -45 2q10 27 28 49q16 18 38 34t54 16q31 -2 49.5 -7.5t28.5 -9.5q10 -6 17 -12q14 10 34 18q16 6 40 10.5t57 0.5q33 -6 51 -28t29 -46q10 -29 12 -62q-18 10 -39 15q-16 4 -38 0t-44 -27q-16 -16 -23.5 -44t-11.5 -56q-4 -33 -4 -70 q-4 -31 -2 -61q2 -27 7 -58.5t18 -60.5q10 -29 23 -47.5t24 -28.5q12 -12 26 -20q-12 -12 -22 -29q-10 -14 -21.5 -31.5t-19.5 -40.5q-10 -23 -14.5 -49t-8.5 -49q-4 -27 -4 -53q-2 -12 -1 -25q0 -19 3 -39q4 -29 14.5 -63.5t32.5 -71.5q23 -37 51.5 -51t55.5 -19 q31 -4 63 5q18 0 39 8q16 6 36 20.5t40 40.5q15 25 21 69q3 25 4 51q0 18 -2 36q-4 51 -13 104q29 -6 51 -18q20 -10 40 -31.5t30 -54.5q10 -35 12 -61.5t-2 -49.5q-4 -25 -10 -45q12 -10 23 -26q10 -14 17 -39t7 -60t-11 -56.5t-26 -33.5q-16 -14 -37 -20q4 16 5 32 q0 14 -6.5 29.5t-22.5 28.5q-16 12 -31.5 14t-25.5 0q-12 -2 -25 -8q-29 -14 -59 -23q-27 -8 -60 -15t-61 -7q-31 0 -61.5 10t-57.5 23q-31 14 -57 34q-10 -20 -33 -36q-18 -15 -49 -25q-22 -8 -53 -7q-12 0 -25 1q-47 4 -72.5 28.5t-36.5 53.5q-12 35 -12 76z" />
<glyph unicode="m" horiz-adv-x="1400" d="M6 92q41 0 74 23q28 18 50 59q17 33 18 91q0 13 -1 28q-4 78 -17 131t-28 88q-16 39 -36 66q23 4 40 32q16 25 31 78t19 158q1 16 1 30q1 82 -19 130q-22 56 -52 81q-35 31 -80 35q6 23 19 45q10 18 27.5 35t45.5 23q29 6 43.5 1t24.5 -16q8 -10 14 -24q10 12 23 20 q10 8 27.5 14.5t43.5 4.5q25 -2 39.5 -9.5t24.5 -17.5t16 -22q12 14 29 24q14 10 32.5 17.5t43.5 7.5t39 -12.5t24 -26.5q8 -16 15 -37q-2 2 -9 0q-4 -2 -12 -7t-20 -20q-14 -12 -17.5 -33.5t-3.5 -41.5q0 -25 4 -52q6 -37 15 -73q6 -33 15 -69t21 -71q10 -37 23.5 -71.5 t26.5 -63.5q14 -33 30 -59q16 20 33 49q14 25 30.5 61.5t33.5 85.5q12 39 20 73t14 61q8 31 13 55q2 20 4 43v19q0 28 -4 57q-6 16 -18.5 28.5t-24.5 18.5q-14 8 -33 10q10 20 24 37q12 14 31 26.5t43 12.5q23 0 38 -6.5t26 -14.5q10 -8 14 -18q14 10 31 18q14 6 33.5 12.5 t42.5 8.5q23 0 38 -6.5t27 -16.5t25 -24q8 12 22 22q12 10 30.5 17.5t47.5 7.5q27 0 42 -17.5t24 -40.5q8 -25 12 -57q-27 16 -51 8q-23 -6 -47.5 -37.5t-40.5 -109.5q-11 -65 -11 -119q0 -27 3 -50q8 -71 24 -118q18 -55 47 -96q-39 -57 -61 -117q-20 -53 -30 -115 q-3 -20 -4 -41q0 -43 15 -86q20 -63 49 -88.5t58 -34.5q16 -4 32.5 -4t32.5 4q-10 -31 -24 -53q-14 -20 -35 -36.5t-49 -16.5q-29 0 -48.5 5t-29.5 13q-12 8 -19 19q-14 -14 -34 -23q-16 -8 -40 -13t-53 -1t-48 21.5t-29 37.5q-12 23 -19 54q20 -6 38 -6q21 0 40 8 q29 12 51 54q20 38 19 122v16q-4 96 -19.5 149.5t-34.5 82.5q-23 33 -47 43q14 16 29 41q10 23 22.5 53.5t20.5 77.5q10 43 11 79.5t1 65.5q-2 33 -4 57q-2 18 -8 35q-4 14 -12.5 25.5t-18.5 15.5q-25 2 -43 -26q-8 -14 -16 -33q-12 -20 -21 -47q-8 -23 -17 -60t-13 -84 q-6 -38 -6 -74v-18q2 -45 8 -80q8 -41 18 -75q-14 -12 -31 -35q-14 -20 -32.5 -56t-40.5 -96q-27 -88 -28 -148v-11q0 -53 9 -89q10 -45 31 -73q-6 -4 -14 -7q-8 -2 -18.5 -2t-26.5 7q-27 8 -43 24q-8 8 -13 14q-8 -10 -16 -18t-18.5 -17.5t-24.5 -15.5q-27 -14 -49 -14 q-10 0 -21 2q23 35 33 86q8 33 8 79q0 15 -1 29q-3 64 -30 154q-20 57 -40.5 92t-36.5 58q-20 23 -39 37q2 35 2 73q0 35 -1 77t-7 87q-14 86 -29 131q-8 23 -14 39t-15 27q-6 10 -15 17t-20 3q-12 -4 -18 -16t-10 -27q-4 -16 -6 -37q-4 -20 -7 -43q-2 -20 -3 -47.5t3 -62.5 q2 -35 10.5 -67t16.5 -58q8 -31 21 -58q-23 -43 -33 -98q-10 -47 -12 -115q0 -8 -1 -15q0 -62 17 -138q10 -43 32.5 -63.5t45.5 -28.5q27 -8 59 -6q-6 -33 -18 -56q-10 -20 -32 -36.5t-54 -16.5q-59 0 -80 14q-12 8 -17 17q-6 -10 -16 -19q-10 -6 -27.5 -11t-44.5 -1 q-29 4 -47 18.5t-28 30.5q-12 20 -19 43z" />
<glyph unicode="n" d="M2 109q22 -6 43 -6t39 6q30 10 56 50q24 37 24 117v13q-2 92 -16.5 148.5t-30.5 90.5q-20 39 -45 60q25 12 43 49q15 31 27 86q10 47 10 121v26q-2 121 -25 175.5t-51 72.5q-21 14 -46 14q-13 0 -28 -4q2 25 12 48q10 18 26.5 34.5t47.5 20.5q33 4 53.5 0t32.5 -12 q14 -8 23 -23q8 8 20 16q10 6 25.5 11.5t36.5 7.5q20 0 36.5 -8.5t26.5 -18.5q12 -12 23 -26q18 18 38 32q16 10 38 18.5t44 2.5q20 -8 36 -24.5t26 -32.5q12 -20 20 -46q-37 -2 -59 -24q-20 -20 -30 -66q-3 -15 -3 -35q0 -41 14 -102q18 -86 47 -135t56 -78q31 -33 63 -45 q-8 -33 -12 -70q-3 -22 -2 -47v-26q2 -40 14 -88q10 -47 23.5 -80t26.5 -53q14 -25 30 -39q14 12 23 39q8 23 9 65v6q0 40 -11 101q-10 37 -22.5 58t-22.5 32q-12 12 -27 16q18 20 35 61q12 35 23.5 98.5t13.5 164.5v14q0 85 -22 130q-24 48 -52 65q-27 15 -57 15 q-9 0 -19 -1q2 31 17 53q12 20 36.5 36.5t67.5 16.5q29 -2 46.5 -8t25.5 -14t12 -23q8 20 25 33q12 10 33.5 17.5t52.5 3.5q43 -10 63.5 -31t28.5 -41q8 -25 6 -51q-31 16 -59 4q-25 -10 -50.5 -49t-40.5 -131q-11 -64 -11 -118q0 -24 2 -45q7 -71 24 -118q18 -55 45 -94 q-10 -8 -23 -33q-10 -23 -23.5 -66t-23.5 -120q-7 -45 -7 -83q0 -29 4 -55q9 -60 26 -102q18 -49 47 -86q-8 -14 -23 -25q-12 -10 -32.5 -15t-49.5 1t-48 15.5t-32 19.5q-14 10 -24 20q-12 -4 -23 -6q-10 -4 -19 -5t-20 -5q-25 -8 -47 -4q-12 0 -24 4q2 20 2 42q0 32 -4 67 q-6 47 -22.5 108.5t-51.5 120.5q-37 59 -64.5 94t-46.5 55q-23 23 -39 33q8 27 13 68q3 23 3 55q0 16 -1 33q-2 53 -12 127q-12 72 -32 109.5t-36 54.5q-20 18 -41 18q-12 -20 -20 -49q-6 -27 -10 -66q-1 -12 -1 -25q0 -31 6 -69q8 -55 20.5 -90t24.5 -55q14 -23 29 -35 q-20 -37 -33 -92q-12 -47 -19 -120q-3 -34 -3 -74q0 -46 4 -101q6 -66 32.5 -89.5t55.5 -27.5q6 -1 13 -1q30 0 63 15q-6 -27 -19 -49q-10 -18 -27.5 -35.5t-45.5 -21.5q-22 -2 -41 -2q-31 0 -52 6q-18 4 -28 12q-4 -6 -17 -10q-10 -4 -29.5 -6t-54.5 -2q-33 0 -53 16.5 t-31 38.5q-12 23 -18 56z" />
<glyph unicode="o" d="M4 604q20 6 42 22.5t42.5 50.5t35.5 87t21 131q12 51 38 109.5t69 108.5t107.5 83t152.5 33q111 0 185.5 -41t121.5 -98.5t73 -120t36 -107.5q4 -23 7 -54.5t9 -74.5q8 -70 31.5 -102.5t48.5 -42.5q-35 -14 -65.5 -59.5t-47.5 -147.5q-4 -59 -23.5 -127t-61.5 -124 t-111.5 -93t-173.5 -37q-94 0 -161 27.5t-113 71.5t-75.5 100.5t-49 113t-34 107.5t-28.5 88q-12 39 -36 62.5t-40 33.5zM293 836q0 -72 23.5 -134.5t64.5 -103.5q-35 -41 -57.5 -100.5t-22.5 -126.5q0 -61 16.5 -114.5t46 -93.5t68.5 -62.5t82 -22.5t82 22.5t68.5 62.5 t46 93.5t16.5 114.5q0 68 -21.5 125t-56.5 98q41 41 65.5 104.5t24.5 137.5q0 61 -17 116.5t-47 95t-71 63.5t-88 24t-87 -24t-70.5 -63.5t-48 -95t-17.5 -116.5z" />
<glyph unicode="p" d="M35 174q37 -17 69 -17q7 0 13 1q31 4 56.5 29.5t25.5 97.5t-15.5 126t-33.5 93q-23 45 -50 78q31 31 56 71q23 35 39 87.5t16 123.5q-4 68 -13.5 115t-22.5 77.5t-28.5 47t-29.5 24.5q-17 8 -35 8q-22 0 -47 -12q23 35 47 58q23 20 52 34q20 10 42 10q13 0 27 -3 q37 -8 60.5 -22.5t35.5 -31.5q14 -18 20 -36q25 25 64 45q35 16 87 29.5t130 15.5q78 0 135.5 -27t93.5 -61q43 -39 74 -88q8 -12 17 -25q8 -10 17 -23.5t21 -23.5q10 -14 21.5 -22.5t21.5 -14.5q12 -8 25 -10q-8 -6 -16 -15q-14 -12 -29 -32q-12 -10 -21.5 -23.5 t-17.5 -28.5q-8 -16 -14 -32q-12 -43 -35 -86q-20 -37 -52 -81t-79 -83q-25 -20 -53.5 -30.5t-60.5 -13.5t-63.5 -1t-62.5 6q-70 10 -145 39q-8 -33 -12 -76q-4 -37 -5 -88q-1 -9 -1 -18q0 -44 6 -93q6 -61 29.5 -85.5t49.5 -28.5q8 -2 17 -2q24 0 51 12q-6 -37 -18 -68 q-10 -27 -32 -53.5t-59 -38.5q-30 -10 -53 -10q-6 0 -12 1q-27 3 -43 13q-20 10 -33 31q-6 -14 -20 -23q-12 -8 -38 -13q-12 -2 -27 -2q-19 0 -42 3q-43 6 -64.5 33t-29.5 55q-6 28 -6 61v17zM362 866q0 -57 14.5 -107t39 -87t58.5 -58.5t71 -21.5q39 0 71.5 21.5t57 58.5 t39 87t14.5 107q0 55 -14.5 104.5t-39 86.5t-57 58.5t-71.5 21.5q-37 0 -71 -21.5t-58.5 -58.5t-39 -86t-14.5 -105z" />
<glyph unicode="q" d="M0 586q18 6 39 22q16 14 33.5 38t29.5 61q8 23 15.5 52t11.5 58q6 33 10 66q23 98 74 176q20 33 50 63.5t67 54t84 37.5q41 11 91 11h15q117 -4 191.5 -56.5t117.5 -111.5q51 -70 78 -160q4 -18 11 -45q4 -23 9 -56.5t9 -76.5q2 -45 15.5 -74t27.5 -45q16 -20 37 -33 q-16 -6 -31 -18q-14 -10 -28.5 -28.5t-26.5 -47.5q-8 -18 -12.5 -38.5t-8.5 -37.5q-4 -20 -6 -41q-4 -63 -24 -123q-16 -53 -49 -109t-93 -97l2 -2l70 -91q23 -31 45 -55q18 -23 41 -40t43 -19q18 -4 36.5 1t33.5 9q16 6 32 14q-12 -43 -34 -75q-18 -29 -50 -49 q-24 -14 -57 -14q-9 0 -20 1q-45 6 -75 21.5t-50 31.5q-23 18 -37 41l-113 170q-23 -4 -46 -5t-50 1q-61 2 -110.5 18.5t-88.5 44t-69.5 61.5t-51.5 71q-53 82 -75 190q-4 23 -11 45q-10 43 -28 90q-8 25 -20.5 43.5t-24.5 30.5q-14 14 -29 25zM287 821q0 -74 23.5 -137 t64.5 -104q-37 -41 -58.5 -101.5t-21.5 -132.5q0 -61 16.5 -115.5t45 -95.5t67.5 -64.5t82 -23.5t82 23.5t67.5 64.5t45 95.5t16.5 115.5q0 70 -20.5 129.5t-55.5 99.5q41 41 65.5 105.5t24.5 140.5q0 63 -17.5 119.5t-48 97.5t-70.5 65.5t-85 24.5q-47 0 -88 -24.5 t-70.5 -65.5t-47 -97t-17.5 -120z" />
<glyph unicode="r" horiz-adv-x="1177" d="M0 1073q10 39 31 70q16 27 47 48t78 23q47 0 72.5 -14t39.5 -33q16 -23 23 -47q27 35 63 58q33 20 83 34q28 7 62 7q28 0 60 -5q80 -10 135.5 -50t89.5 -85q39 -53 66 -114q6 -18 12 -35q4 -14 10.5 -26.5t10.5 -16.5q4 -16 11 -29.5t17 -23.5q10 -12 23 -21 q-14 -2 -33 -14q-16 -10 -37.5 -33t-48.5 -61q-43 -63 -76 -101q-18 -23 -32 -37q14 -10 30 -24q14 -12 28.5 -30.5t31.5 -47.5q16 -29 27.5 -70t19.5 -78q8 -43 16 -90q6 -25 17 -47q10 -18 22 -35.5t35 -21.5q20 -4 36.5 0t28.5 14q14 8 25 25q-4 -43 -14 -76 q-10 -29 -31 -52.5t-57 -27.5q-37 -4 -62.5 5t-42.5 20q-18 12 -29 30q-12 -25 -32 -38q-16 -14 -43 -20.5t-62 3.5t-53 35t-25 51q-6 25 -6 53v15q27 -16 49 -25q20 -6 39 -2t25 33q4 27 5 51.5t-1 40.5q-2 20 -6 37q-6 29 -16 59q-10 27 -28 57.5t-46 59.5 q-29 27 -60.5 38t-60.5 15q-13 2 -26 2l-40 -4q-31 -10 -53 -35q-20 -23 -36 -61q-12 -30 -12 -75q0 -12 1 -25q-1 -13 0 -25q1 -75 21 -113q24 -44 57 -61q26 -14 60 -14q13 0 28 2q-8 -39 -25 -66q-14 -23 -37.5 -40t-60.5 -11q-41 4 -61.5 10t-30.5 12q-12 8 -14 15 q-4 -14 -21 -23q-13 -8 -39 -11q-6 -1 -13 -1q-22 0 -54 8q-41 6 -61.5 27.5t-29.5 44.5q-8 27 -8 59q16 -5 32 -5q23 0 42 11q30 13 52 59q19 39 19 116q0 14 -1 28q-4 98 -20.5 150.5t-33.5 76.5q-20 29 -45 31q25 27 47 68q18 35 33 89t19 132q0 49 -6.5 84t-16.5 56.5 t-24.5 32.5t-28.5 15q-11 2 -22 2q-27 0 -58 -12zM305 848q0 -53 14.5 -99.5t39 -81t57 -55t71.5 -20.5q37 0 70 20.5t57.5 55t38 81t13.5 99.5t-13.5 100t-38 82t-57.5 54.5t-70 19.5q-39 0 -71.5 -19.5t-57 -54.5t-39 -82t-14.5 -100z" />
<glyph unicode="s" horiz-adv-x="901" d="M0 258q4 47 18.5 77t30.5 48q20 23 43 33q-12 -35 -14 -72q0 -6 -1 -11q0 -29 9 -64q10 -42 45 -89q27 -37 55.5 -56.5t51.5 -29.5q27 -10 53 -12q15 -1 29 -1q56 0 100 13q47 14 85 50q36 34 36 106v8q-4 63 -25.5 108.5t-46.5 73.5q-29 35 -63 56q-10 4 -23 12 q-10 4 -25.5 10t-33.5 10q-20 4 -37 2t-27 -6q-12 -4 -22 -8q0 14 -2 31q-4 33 -21 55q-25 27 -35 41q-8 8 -14 19q-49 53 -82 112q-29 52 -43 116q-5 24 -5 48q0 42 15 86q23 68 68 107.5t90 62.5q53 25 113 35h36q16 -2 39 -4t47 -13q20 -6 37 -10t27 -8q12 -4 22 -6 q14 -4 33 -6q16 -2 33.5 -4t36.5 0q16 0 30.5 9t24.5 21q11 15 21 33q8 -12 16 -29q12 -29 12 -68v-11q-2 -29 -11 -45.5t-19 -26.5q-12 -12 -29 -19q4 -23 4 -45q0 -20 -5 -45.5t-22 -52.5q-16 -27 -36.5 -40t-43.5 -19q-25 -8 -51 -6q27 47 35 94q5 22 5 46q0 18 -3 36 q-6 43 -47 73q-35 23 -58.5 32t-39.5 11q-18 2 -31 -2h-10q-39 0 -72 -14q-33 -16 -62.5 -52t-39.5 -110v-16q1 -74 35 -111q38 -41 86 -59q51 -21 116 -21h11q2 -10 6 -20t10 -19.5t20 -19.5l24.5 -17.5t18.5 -11.5q8 -6 17 -10q45 -20 82 -59q33 -35 61.5 -94.5 t38.5 -151.5q3 -24 3 -46q0 -70 -30 -118q-38 -64 -90 -104q-61 -45 -141 -72q-31 -2 -63 -4q-29 -2 -61 -1t-62 5q-31 4 -53.5 5t-39.5 -1q-18 -2 -30 -4q-8 0 -17 -2l-18 -9t-25 -20q-14 -14 -20 -24.5t-10 -18.5t-2 -18q-12 12 -21 26q-8 12 -15 28.5t-9 33.5 q-4 16 -2 30.5t6 24.5t10 19q-14 20 -23 49q-8 25 -13 59q-3 19 -3 43q0 18 2 39z" />
<glyph unicode="t" horiz-adv-x="1093" d="M2 1212q2 27 9 42.5t16 23.5q8 8 20 12q2 -16 8 -30q4 -12 14.5 -24.5t28.5 -23.5q18 -10 39 -10t39 4q23 4 43 15q16 6 39 8q18 2 42 1t52 -7q29 -8 48.5 -23.5t33.5 -32.5q16 -18 27 -39q16 35 43 58q22 20 58 32q15 5 34 6q25 0 55 -10q14 -2 30.5 -6t33.5 -8 q18 -6 35 -12q12 -4 26 -6q12 -2 26.5 -1t31.5 5q14 4 25 16t18 23q8 12 12 26q10 -8 18 -20q6 -10 12.5 -29.5t4.5 -46.5t-8.5 -44t-14.5 -28q-8 -12 -20 -18q2 -31 0 -59q-2 -25 -7.5 -54.5t-21.5 -54.5q-16 -27 -38.5 -40t-45.5 -17q-27 -6 -55 -4q25 41 39 77 q12 33 17 70q1 10 1 19q0 26 -10 51q-14 23 -33.5 34t-38.5 15q-23 4 -43 2q-20 0 -43 -14q-18 -12 -37.5 -43t-32.5 -93q-10 -51 -10 -93q0 -35 6 -61q14 -62 37 -100q27 -45 68 -73q-27 -31 -49 -70q-18 -35 -32 -84q-11 -38 -12 -86q0 -13 1 -27q6 -98 32.5 -144 t57.5 -62q27 -15 58 -15q11 0 22 2q-6 -39 -21 -69q-12 -27 -33.5 -48.5t-58.5 -21.5t-60.5 6t-35.5 17q-14 10 -21 24q-12 -20 -30 -33q-16 -10 -42 -17t-63 3q-39 10 -59.5 37t-30.5 55q-12 33 -14 72q23 -6 43 -6q23 0 43 8q32 12 58 53q24 38 24 122v13 q-6 74 -22.5 126.5t-35.5 84.5q-23 37 -45 64q31 20 53 63q18 36 30 100q6 34 6 79q0 39 -5 85q-10 53 -31.5 87t-44.5 51q-27 20 -55 26q-20 2 -43 -4q-18 -6 -38.5 -20.5t-37.5 -44.5q-16 -29 -16 -71t4 -79q6 -45 18 -90q-23 -4 -45 4q-18 6 -38.5 26.5t-32.5 61.5 q-12 39 -12 74q0 37 10 65q8 31 22 58q-14 12 -24 28q-10 14 -18.5 34t-6.5 48z" />
<glyph unicode="u" d="M2 1130q8 23 25 44q14 16 38.5 29.5t63.5 17.5q37 4 58.5 -1.5t31.5 -11.5q12 -8 14 -16q12 10 31 18q16 6 39 10.5t55 0.5q31 -4 51.5 -15.5t32.5 -21.5q14 -12 21 -29q-43 -6 -78 -31q-29 -23 -54.5 -69.5t-27.5 -132.5v-21q1 -75 13 -123q14 -54 32 -86q20 -37 47 -51 q-27 -31 -43 -76q-14 -39 -21 -98q-2 -20 -2 -42q0 -45 9 -101q14 -86 44 -133.5t60 -69.5q37 -27 76 -35q47 0 88 16q35 14 69 48t48 102q12 73 12 132q0 26 -2 50q-8 76 -24 125q-20 57 -54 96q20 25 39 62q16 31 28.5 78t12.5 112v14q1 89 -23 137q-26 50 -57 68 q-29 18 -65 18q-9 0 -19 -1q8 23 25 39q12 14 32.5 25.5t49.5 13.5t48 -3.5t34 -9.5l28 -14q20 16 46 27q20 10 47.5 15t60.5 -1q31 -6 46.5 -27.5t23.5 -44.5q8 -27 8 -59q-29 17 -57 17q-11 0 -21 -3q-31 -6 -58.5 -41t-37.5 -127q-3 -29 -3 -55q0 -49 10 -86 q15 -57 38 -94q25 -43 61 -72q-10 -6 -18 -14q-8 -10 -17.5 -24.5t-17.5 -37.5q-10 -23 -14 -58.5t-8 -70.5q-4 -39 -5 -82q-4 -37 -14 -73q-10 -33 -25.5 -73t-41.5 -81q-31 -49 -78 -74.5t-92 -38.5q-53 -14 -109 -14q-47 0 -94 12q-41 10 -85 33t-77 64q-35 41 -52.5 91 t-27.5 95q-10 53 -14 106q0 14 -4 37q-6 37 -25 99q-10 29 -22.5 47t-22.5 28q-12 12 -25 19q27 25 50 61q17 31 31 79q10 37 11 85q0 14 -1 29q-6 106 -30 158.5t-52 70.5q-24 16 -51 16q-9 0 -19 -2z" />
<glyph unicode="v" d="M4 1108q12 31 31 55q16 23 37.5 40.5t50.5 21.5t48 -2t32 -15q14 -8 24 -22q16 12 35 20q16 8 35.5 14.5t42.5 4.5t39 -13.5t29 -25.5q14 -16 26 -37q-39 -8 -67 -35q-25 -23 -41 -69q-10 -29 -10 -70q0 -25 3 -55q8 -80 29 -137.5t43 -92.5q25 -43 55 -69 q-23 -29 -32 -68q-10 -35 -12 -85v-7q0 -48 20 -111q20 -70 38.5 -106.5t33.5 -53.5q16 -20 30 -22q23 -4 43 12q16 14 33.5 48t28.5 106q15 73 15 124v6q-1 52 -9 85q-10 37 -29 59q27 20 49 56q20 29 41 75.5t31 116.5q6 56 6 99q0 57 -10 91q-18 62 -47 84q-27 21 -61 21 q-10 0 -21 -2q14 27 35 47q16 16 40.5 30.5t57.5 10.5q31 -2 50.5 -9t29.5 -18q12 -10 18 -24q14 10 33 18q16 6 39 11.5t51 3.5q29 -4 43.5 -20.5t22.5 -39.5q8 -25 10 -55q-31 10 -61 2q-29 -6 -61 -30.5t-60 -84.5q-29 -59 -34 -127q-3 -38 -3 -72q0 -28 2 -53 q6 -68 22 -133q-25 -29 -47 -63q-18 -29 -36.5 -66t-26.5 -78q-25 -122 -25 -190q0 -13 1 -23q5 -70 24 -96q18 -26 43 -26q7 0 14 2q-6 -20 -16 -35q-10 -14 -28.5 -24.5t-49.5 -8.5t-47.5 9t-24.5 16q-8 8 -10 20q-6 -14 -18 -23q-10 -10 -27.5 -16t-40.5 -6q-25 0 -43 7 t-29 18q-14 10 -22 24q-12 -18 -27 -31q-12 -10 -30.5 -19t-40.5 -9q-23 0 -37.5 11t-24.5 28q-10 16 -18 39q33 0 55 30q15 26 23 84q2 13 2 30q0 54 -19 142q-14 70 -39.5 120t-50.5 81q-31 37 -63 59q25 20 36 66q10 37 10 100v6q0 68 -30 179q-14 66 -41 97.5t-53 41.5 q-22 8 -45 8q-11 0 -23 -2z" />
<glyph unicode="w" horiz-adv-x="1497" d="M2 1124q10 25 27 45q14 16 33.5 33t46.5 21t49 -4.5t39 -18.5q20 -12 36 -26q18 14 41 26q18 10 43 18.5t50 4.5t44 -20.5t33 -33.5q16 -20 29 -45q-49 -2 -78 -32q-25 -26 -33 -86q-1 -11 -1 -25q0 -57 28 -150q35 -117 58.5 -181t39.5 -99q16 -39 27 -51q33 63 61 116 q25 45 51.5 83t43.5 42q8 2 18 -7t21.5 -26.5t23.5 -39t23 -43.5q25 -53 53 -125q6 4 25 39q14 29 40.5 94t67.5 188q20 61 26 107q4 28 5 51q0 15 -2 27q-4 32 -16.5 54.5t-26.5 35.5q-34 28 -87 28h-10q27 27 52 50q23 18 48 33.5t52 15.5q25 0 44.5 -7.5t35.5 -17.5 q18 -10 33 -22q8 12 22 22q12 8 30.5 15.5t47.5 9.5t52.5 -11.5t39.5 -29.5q20 -20 37 -43q-33 -8 -63 -29q-27 -16 -56.5 -45t-50.5 -72q-45 -95 -54 -163q-6 -47 -6 -84q0 -16 1 -31q6 -53 26 -90q-27 0 -51 -21q-23 -16 -48.5 -58t-47.5 -120q-20 -66 -20 -119 q1 -30 7 -55q18 -70 52 -115q39 -53 100 -86q-8 -16 -20 -26q-10 -10 -27.5 -17.5t-46.5 -7.5t-50.5 10t-37.5 23q-18 14 -31 33q-6 -16 -16 -31q-10 -12 -26.5 -22.5t-45.5 -12.5t-46 7t-28 20q-12 12 -18 30q31 -4 49 13q16 14 22 49q1 8 2 17q0 33 -18 89q-23 70 -42 107 t-36 53q-18 20 -34 21q-8 2 -21 -11q-10 -10 -27.5 -37.5t-46.5 -87.5q-35 -59 -36 -100v-7q0 -37 10 -61q12 -31 41 -51q-6 -16 -15 -26q-10 -10 -24.5 -17.5t-36.5 -7.5q-25 0 -42 9t-28 20q-12 12 -22 28q-12 -14 -31 -26q-16 -10 -36.5 -19.5t-47.5 -11.5t-49.5 5 t-38.5 18q-20 10 -35 24q53 25 94 64q36 35 62 87q23 45 23 110q0 10 -1 20q-4 66 -27.5 121t-52.5 96q-33 49 -71 90q12 27 16 72q2 16 2 34q0 28 -4 64q-6 59 -29 151q-25 90 -57.5 127t-60.5 47q-13 4 -27 4z" />
<glyph unicode="x" d="M0 1118q14 27 37 49q18 17 48 31q26 12 61 12h10q41 -2 62.5 -9t31.5 -15t12 -21q6 12 21 23q12 10 36.5 19.5t65.5 17.5t62.5 -1.5t31.5 -23.5q10 -16 13 -41q-41 0 -62 -22q-15 -19 -15 -63v-6q1 -48 50 -144q23 -53 45 -83t41 -44q23 -16 41 -21q12 2 24 27 q10 23 22.5 67.5t27.5 130.5v13q0 56 -16 84q-18 32 -44 47q-26 14 -57 14h-8q10 20 28 35q16 12 39 22.5t58 8.5q33 -2 54 -9.5t34 -15.5q14 -8 20 -20q14 12 37 22q18 8 45 15.5t62 7.5t55 -12.5t31 -26.5q12 -18 18 -39q-7 1 -13 1l-69 -18q-35 -16 -79 -59t-87 -131 q-39 -72 -62.5 -127t-37.5 -94q-16 -45 -23 -78q-2 -20 13 -61q12 -35 42.5 -96.5t90.5 -159.5q53 -94 106 -143.5t96 -71.5q51 -27 99 -31q-4 -23 -21 -39q-14 -14 -43.5 -25.5t-83.5 -11.5q-53 0 -87 5t-54 13q-23 8 -35 21q-10 -14 -26 -23q-16 -8 -40 -14q-14 -4 -35 -4 q-14 0 -30 2q-41 4 -60.5 10t-27.5 15q-8 8 -6 20q31 10 53 33q18 18 32 48q11 24 12 56q0 9 -1 19q-27 94 -54.5 139t-49.5 61q-27 20 -56 13q-18 -10 -34 -33q-14 -18 -27.5 -50t-20.5 -85q-8 -39 -8 -68q1 -26 7 -44q14 -38 36 -54q25 -20 64 -21q-16 -23 -39 -36 q-18 -12 -43 -20.5t-55 -2.5q-31 4 -51.5 13.5t-32.5 17.5q-14 8 -23 20q-8 -14 -27 -24q-16 -10 -40.5 -18.5t-65.5 -8.5q-7 -1 -14 -1q-31 -1 -49 15q-22 18 -33 41q-12 25 -15 60q33 -16 69 -16q9 0 19 1q41 4 90.5 36t102.5 112q41 63 67.5 119.5t43.5 97.5q18 49 28 90 q-8 29 -31 72q-18 37 -49.5 93t-85.5 136q-63 117 -112.5 171t-83.5 75q-30 16 -55 16q-9 0 -17 -2z" />
<glyph unicode="y" d="M0 1100q10 29 29 51q16 20 40.5 36.5t63.5 20.5t61.5 1t34.5 -9q14 -8 21 -18q12 12 31 20q14 8 34.5 14.5t46.5 8.5q27 2 47.5 -8.5t36.5 -22.5q18 -14 31 -33q-39 0 -61 -28q-18 -25 -20 -83q-1 -3 -1 -6q0 -57 39 -157q27 -92 51.5 -135t42.5 -60q23 -20 41 -16 q12 0 29 24q14 23 32.5 70t41.5 145q12 55 16 95q2 24 2 43q0 15 -1 27q-3 30 -11 48.5t-19 28.5q-23 23 -59 23h-6q8 16 22 28q12 10 33 16.5t56 0.5q33 -6 50 -14.5t27 -14.5q10 -8 15 -14q16 12 39 22q16 8 39.5 15.5t50.5 5.5q25 -2 43 -17.5t30 -33.5q14 -23 25 -50 q-10 1 -20 1q-26 0 -52 -7q-33 -10 -72.5 -38.5t-78.5 -88.5q-70 -102 -93.5 -171.5t-27.5 -114.5q-1 -9 -1 -17q0 -42 17 -70q-31 -23 -53 -61q-20 -35 -37 -89q-16 -48 -16 -121v-17q2 -115 29.5 -164t60.5 -60q14 -5 30 -5q26 0 56 14q-10 -35 -27 -62q-16 -23 -39.5 -40 t-58.5 -13t-57.5 11t-34.5 18q-14 10 -23 22q-10 -16 -26 -26q-14 -10 -37 -18.5t-57 -6.5q-35 2 -55.5 18.5t-33.5 32.5q-14 20 -20 45q7 -1 13 -1q34 0 63 18q29 16 52.5 59t25.5 135q0 92 -22.5 150.5t-51.5 93.5q-33 41 -74 63q18 31 23 78v10q0 38 -12 92 q-15 62 -68 154q-35 66 -78 97.5t-80 44.5q-33 11 -68 11q-10 0 -20 -1z" />
<glyph unicode="z" horiz-adv-x="993" d="M3 1022q5 33 15 51q10 20 27 29q-10 6 -18 18q-8 10 -14.5 29.5t-8.5 52.5t9.5 54.5t25.5 35.5q16 16 37 27q2 -10 8 -21q4 -10 11 -22t22 -29q12 -14 42.5 -24.5t65.5 -16.5t66 -8t47 0t34.5 3t35.5 3l36 4l218 17q29 0 51 -2q20 -2 37.5 -8.5t21.5 -18.5q4 -14 -8 -43 t-29 -57q-18 -35 -43 -72l-114 -201q-8 -18 -17 -35q-6 -16 -11 -31.5t-9 -31.5q-4 -31 -2 -55.5t6 -40.5q6 -20 12 -35q-53 -43 -98 -86q-39 -37 -75 -82t-48 -88q-30 -90 -30 -144q0 -12 1 -22q8 -57 31 -84q27 -31 76 -33q29 -5 57 -5q9 0 18 1q33 2 70 9.5t70 25.5 q63 43 88.5 87t30.5 79q2 12 2 23q0 29 -11 57q20 -14 41 -37q16 -18 30.5 -48t18.5 -69q0 -10 1 -20q0 -28 -5 -50q-6 -28 -14 -47q-8 -23 -23 -36q6 -18 11 -37q4 -16 4 -33.5t-4 -32.5q-4 -14 -13.5 -23.5t-19.5 -13.5q-10 -8 -25 -10q-4 14 -10 29q-10 27 -33 53 q-20 20 -41 25q-8 2 -14 0q-47 4 -86 8q-35 4 -65.5 6t-42.5 2h-304q-33 0 -59 4q-23 4 -43 8t-25 13q-4 8 7.5 33.5t25.5 54.5q16 33 39 73q8 16 19 43q10 23 23 61t32 97q12 47 12 82q0 7 -1 14q-3 39 -11 66q-10 29 -27 49q45 25 90 59q39 29 81 71t73 95q70 95 84 153 q8 34 8 58q0 18 -4 31q-12 37 -51 51q-29 8 -62 8q-29 0 -61.5 -9t-67.5 -34q-66 -47 -87 -101q-19 -49 -19 -93v-8q1 -56 26 -113q-37 6 -65 27q-25 16 -48.5 49.5t-29.5 91.5q-3 31 -3 55q0 20 2 35z" />
<glyph unicode="{" horiz-adv-x="714" d="M4 553v29q170 33 170 215q0 53 -31.5 176t-31.5 215q0 141 89 215t230 74q68 0 118 8t66 16l17 10l4 -2q0 -23 -13.5 -56.5t-23.5 -41.5v-4q10 -8 23.5 -41t13.5 -55l-4 -2q-45 35 -156 34q-178 0 -178 -167q0 -49 30.5 -170t30.5 -187q0 -147 -102 -250v-4 q102 -102 102 -250q0 -66 -30.5 -186.5t-30.5 -169.5q0 -168 178 -168q49 0 88 9.5t53 17.5l15 8l4 -2q0 -23 -13.5 -55.5t-23.5 -40.5v-4q10 -8 23.5 -42t13.5 -57l-4 -2q-49 35 -201 35q-141 0 -230 73.5t-89 215.5q0 92 31.5 215t31.5 176q0 182 -170 215z" />
<glyph unicode="|" horiz-adv-x="288" d="M-33 -399q35 70 35 221v1440q0 68 -9 123t-18 75l-8 23l2 4q78 0 131 -57h4q53 57 134 57l2 -4q-35 -69 -35 -221v-1440q0 -68 8 -123t16 -78l11 -20l-2 -4q-80 0 -134 57h-4q-53 -57 -131 -57z" />
<glyph unicode="}" horiz-adv-x="714" d="M0 -172l4 2q45 -35 156 -35q178 0 178 168q0 49 -31 170t-31 186q0 147 103 250v4q-102 102 -103 250q0 66 31 186.5t31 170.5q0 168 -178 168q-49 0 -88 -9.5t-54 -17.5l-14 -8l-4 2q0 23 13.5 55.5t23.5 40.5v4q-10 8 -23.5 42t-13.5 56l4 3q49 -35 201 -35 q141 0 230 -74t89 -215q0 -92 -31.5 -215t-31.5 -176q0 -182 170 -215v-29q-170 -33 -170 -215q0 -53 31.5 -176t31.5 -215q0 -141 -89 -215t-230 -74q-68 0 -118 -8t-67 -16l-16 -11l-4 2q0 23 13.5 56.5t23.5 42.5v4q-10 8 -23.5 40.5t-13.5 55.5z" />
<glyph unicode="~" horiz-adv-x="1705" d="M61 549v4q35 18 70 60t59.5 79t74.5 65.5t116 28.5q78 0 206 -61t175 -61q63 0 95 49t22 131l2 2q25 -14 51 -44t33 -54h4q61 16 118 -15v-4q-35 -20 -68.5 -64t-58 -79t-73.5 -62.5t-117 -27.5q-90 0 -213 61t-168 61q-66 0 -97.5 -49t-19.5 -131l-2 -2q-27 14 -52 44 t-32 55h-6q-59 -16 -119 14z" />
<glyph unicode="&#xa1;" horiz-adv-x="1705" d="M61 -246l7 4q33 -29 79 -28q98 0 99 116v129q0 125 -127 164v8q127 39 127 164v60q0 68 -8.5 123t-16.5 75l-8 23l2 4q82 0 135 -57h4q53 57 135 57l3 -4q-35 -70 -35 -221v-60q0 -125 127 -164v-8q-127 -39 -127 -164v-129q0 -117 98 -116q47 0 80 28l6 -4 q-12 -59 -55 -101t-103 -42q-76 0 -131 61h-2q-55 -61 -131 -61q-59 0 -102 42t-56 101zM207 878.5q0 63.5 39 104.5q41 41 106.5 41t105.5 -41t40 -104.5t-40 -104.5t-105.5 -41t-105.5 41t-40 104.5z" />
<glyph unicode="&#xa2;" horiz-adv-x="1705" d="M31 498v8q119 37 119 153q0 150 87 245t218 106v10q0 68 -11.5 123t-21.5 78l-12 20l2 4q68 0 98 -37h4q31 37 98 37l2 -4q-45 -69 -45 -221v-16q20 -2 65.5 -13.5t70.5 -11.5q57 0 57 57q0 4 -4 25l6 2q33 -14 56.5 -53t23.5 -80q0 -76 -60 -103v-2q18 -37 19 -67 q0 -61 -47 -102.5t-107 -41.5v7q35 41 35 108q0 55 -44 88t-114 33q-82 0 -133 -50t-51 -141q0 -119 119 -153v-8q-119 -35 -119 -154q0 -90 51 -140t133 -50q70 0 114 32.5t44 87.5q0 68 -35 109v6q59 0 106.5 -41t47.5 -102q0 -31 -19 -68v-2q59 -27 60 -102 q0 -41 -23.5 -80t-56.5 -53l-6 2q4 20 4 24q0 57 -57 58q-25 0 -70 -11.5t-66 -13.5v-25q0 -68 11.5 -123t21.5 -77l12 -21l-2 -4q-68 0 -98 37h-4q-31 -37 -98 -37l-2 4q45 70 45 221v19q-131 10 -218 105.5t-87 244.5q0 117 -119 154z" />
<glyph unicode="&#xa3;" horiz-adv-x="1560" d="M72 535q0 41 37 71v4q-37 31 -37 72l4 2q63 -25 200 -27v297q0 236 97.5 358t267.5 122q229 0 309 -250q2 -6 6.5 -17.5t6.5 -16.5t5 -14.5t5 -12.5t6 -10t7 -9t7 -6t8.5 -6t10.5 -3.5t12 -1.5q41 0 70 29l6 -4q-6 -53 -46 -92t-98 -39q-47 0 -90 35h-2q-49 -68 -112 -68 q-100 0 -134 103l7 2q29 -16 59 -17q72 4 72 90q0 55 -28 92t-85 37q-74 0 -110.5 -67.5t-36.5 -233.5v-297h32q68 0 123.5 7.5t77.5 13.5l21 6l4 -2q0 -41 -37 -72v-4q37 -31 37 -71l-4 -3q-70 27 -222 27h-32v-201q0 -184 211 -184q106 0 165.5 37t59.5 94q0 45 -31 76 l2 8q57 0 102.5 -36t45.5 -91q0 -45 -21 -82v-2q55 -33 55 -104q0 -39 -29.5 -76t-68.5 -53l-6 4q6 20 6 35q0 66 -82 65q-35 0 -140.5 -26.5t-174.5 -26.5q-133 0 -203 65h-2q-55 -61 -133 -61q-59 0 -103.5 42t-56.5 101l6 4q33 -29 80 -28q98 0 98 117v323q-61 0 -111 -7 t-71 -13l-18 -7z" />
<glyph unicode="&#xa5;" horiz-adv-x="1705" d="M2 1270q12 59 56 101t104 42q78 0 133 -61h2q55 61 133 61q59 0 103.5 -42t56.5 -101l-6 -4q-33 29 -80 28q-35 0 -52.5 -30.5t9.5 -85.5l174 -301h4l174 301q27 55 9.5 85.5t-52.5 30.5q-47 0 -80 -28l-6 4q12 59 56 101t104 42q78 0 133 -61h2q55 61 133 61 q59 0 103.5 -42t56.5 -101l-6 -4q-33 29 -80 28q-41 0 -68.5 -26.5t-64.5 -89.5l-277 -461h72q68 0 123 6t78 14l20 6l4 -2q0 -41 -37 -71v-4q37 -31 37 -72l-4 -2q-70 27 -221 26h-103v-112h103q68 0 123 7t78 13l20 6l4 -2q0 -41 -37 -71v-4q37 -31 37 -72l-4 -2 q-70 27 -221 27h-103v-172q0 -117 99 -117q47 0 80 28l6 -4q-12 -59 -56.5 -101t-103.5 -42q-78 0 -133 61h-2q-55 -61 -133 -61q-59 0 -103.5 42t-56.5 101l6 4q33 -29 80 -28q98 0 98 117v172h-102q-68 0 -123 -7.5t-76 -13.5l-22 -6l-4 2q0 41 37 72v4q-37 31 -37 71l4 2 q70 -27 221 -26h102v112h-102q-68 0 -123 -6t-76 -14l-22 -6l-4 2q0 41 37 72v4q-37 31 -37 71l4 2q70 -27 221 -26h72l-275 461q-37 63 -64.5 89.5t-68.5 26.5q-47 0 -80 -28z" />
<glyph unicode="&#xa6;" horiz-adv-x="1705" d="M123 -377q35 69 35 221v418q0 68 -9.5 123t-17.5 78l-8 20l2 4q78 0 131 -57h4q53 57 133 57l2 -4q-35 -70 -35 -221v-418q0 -68 8.5 -123t16.5 -77l10 -21l-2 -4q-80 0 -133 57h-4q-53 -57 -131 -57zM123 645q35 69 35 221v418q0 68 -9.5 123t-17.5 76l-8 22l2 4 q78 0 131 -57h4q53 57 133 57l2 -4q-35 -70 -35 -221v-418q0 -68 8.5 -123t16.5 -75l10 -23l-2 -4q-80 0 -133 57h-4q-53 -57 -131 -57z" />
<glyph unicode="&#xa7;" horiz-adv-x="1705" d="M102 -334q0 68 56 113v2q-20 35 -21 78q0 57 46 102t108 49l4 -6q-33 -29 -33 -72q0 -86 67.5 -133t176.5 -47q111 0 177.5 47t66.5 127q0 90 -134 185q-37 27 -96 22.5t-96 -37.5l-6 4q37 102 -68 176q-217 150 -217 330q0 147 105 246q-104 109 -105 233 q0 145 103.5 241.5t261.5 96.5q70 0 148.5 -18.5t94.5 -18.5q82 0 82 62q0 10 -6 33l6 4q96 -41 97 -123q0 -70 -54 -98v-2q20 -37 21 -78q0 -53 -45 -87t-103 -34l-2 8q27 29 27 72q0 51 -55.5 86t-135.5 35q-225 0 -225 -174q0 -88 113 -170q37 -29 101.5 -29t105.5 35 l6 -4q-35 -109 69 -181q222 -151 222 -335q0 -143 -105 -238q104 -111 105 -240q0 -145 -112 -241.5t-271 -96.5q-76 0 -172.5 21.5t-118.5 21.5q-37 0 -61.5 -19.5t-24.5 -47.5q0 -12 8 -35l-6 -4q-41 18 -73 56t-32 83zM348 612q0 -37 18.5 -71.5t60.5 -68.5t76 -56.5 t100.5 -62.5t98.5 -60q48 42 48 110q0 39 -18.5 75t-62.5 72t-75 57.5t-102.5 64.5t-98.5 59q-45 -43 -45 -119z" />
<glyph unicode="&#xa8;" horiz-adv-x="815" d="M82 1272q0 47 35 82t82 35t81.5 -35t34.5 -82t-34.5 -82t-81.5 -35t-82 35t-35 82zM426 1272q0 47 35 82t82 35t81.5 -35t34.5 -82t-34.5 -82t-81.5 -35t-82 35t-35 82z" />
<glyph unicode="&#xa9;" horiz-adv-x="1558" d="M102 707q0 299 213 512t512 213t512 -213t213 -512t-213 -512t-512 -213t-512 213t-213 512zM213 707q0 -258 179 -439.5t435 -181.5t435.5 181.5t179.5 439.5t-179.5 439t-435.5 181t-436 -182q-178 -180 -178 -438zM469 705v4q76 25 76 98q0 154 68.5 241t189.5 87 q47 0 100 -16.5t66 -16.5q43 0 43 39q0 4 -4 16l4 2q55 -29 55 -88q0 -47 -37 -65q12 -25 12 -50q0 -45 -29.5 -77.5t-64.5 -32.5l-2 6q20 29 21 66q0 43 -34 73.5t-93 30.5q-160 0 -160 -215q0 -74 78 -98v-4q-78 -25 -78 -99q0 -215 160 -215q59 0 93 31t34 74 q0 37 -21 65l2 6q35 0 64.5 -32.5t29.5 -77.5q0 -25 -12 -49q37 -18 37 -66q0 -59 -55 -88l-4 2q4 12 4 16q0 39 -43 39q-12 0 -65.5 -16t-100.5 -16q-121 0 -189.5 86.5t-68.5 240.5q0 74 -76 99z" />
<glyph unicode="&#xaa;" horiz-adv-x="804" d="M102 809q0 115 95.5 183.5t296.5 66.5v84q0 141 -121 141q-55 0 -89 -26.5t-34 -71.5q0 -55 26 -84v-6q-47 0 -84.5 32.5t-37.5 81.5q0 25 14 54v2q-47 20 -47 82q0 33 19.5 64.5t43.5 41.5l6 -2q-4 -16 -4 -20q0 -45 47 -46q20 0 74.5 13.5t102.5 13.5q115 0 181 -78 t66 -209q0 -94 95 -122v-7q-94 -29 -95 -123v-98q6 -88 74 -88q37 0 60 23l6 -4q-10 -45 -47 -77t-84 -32q-82 0 -121 72h-2q-88 -88 -199 -88q-106 0 -174 66.5t-68 160.5zM266 823q0 -43 31 -73.5t82 -30.5q49 0 82 36t33 83v116q-123 2 -175.5 -36.5t-52.5 -94.5z" />
<glyph unicode="&#xab;" horiz-adv-x="1064" d="M0 461v6l422 461l59 -41l-200 -424l200 -422l-59 -41zM416 461v6l422 461l59 -41l-201 -424l201 -422l-59 -41z" />
<glyph unicode="&#xad;" horiz-adv-x="768" d="M4 494q0 34 35 59q-35 27 -35 61h2q43 -16 137 -16h310q43 0 76.5 4t48.5 8l14 4h2q0 -35 -37 -61q37 -25 37 -59h-2q-45 16 -139 16h-310q-41 0 -75.5 -4t-49.5 -8l-12 -4h-2z" />
<glyph unicode="&#xae;" horiz-adv-x="1560" d="M102 707q0 299 213 512t512 213t512 -213t213 -512t-213 -512t-512 -213t-512 213t-213 512zM213 707q0 -258 179 -439.5t435 -181.5t435.5 181.5t179.5 439.5t-179.5 439t-435.5 181t-436 -182q-178 -180 -178 -438zM498 373l4 2q16 -16 47 -17q59 0 59 70v182 q0 74 -76 99v4q76 25 76 98v182q0 70 -59 70q-31 0 -47 -16l-4 2q8 35 34.5 60.5t61.5 25.5q47 0 80 -37q74 49 168 49q188 0 250 -180q16 -43 71 -64v-4q-61 -23 -71 -68q-25 -72 -88 -118v-4q113 -70 112 -281q0 -70 58 -70q29 0 49 17l4 -2q-8 -35 -35 -60.5t-62 -25.5 q-49 0 -79 37h-2q-31 -37 -80 -37q-35 0 -61.5 25.5t-35.5 60.5l5 2q20 -16 49 -17q57 0 57 70q0 113 -29.5 170t-105.5 57q-109 0 -109 -98v-129q0 -70 60 -70q31 0 47 17l4 -2q-8 -35 -35 -60.5t-61 -25.5q-47 0 -80 37q-33 -37 -80 -37q-35 0 -61.5 25.5t-34.5 60.5z M739 858q0 -98 109 -98q51 0 79.5 20.5t28.5 48.5q0 49 -59 70v4q59 20 59 70q0 29 -28.5 52.5t-79.5 23.5q-109 -1 -109 -99v-92z" />
<glyph unicode="&#xaf;" horiz-adv-x="718" d="M82 1151v113h618v-113h-618z" />
<glyph unicode="&#xb0;" horiz-adv-x="698" d="M61 1116q0 131 91.5 223.5t222.5 92.5q129 0 221 -92.5t92 -223.5q0 -129 -92 -220t-221 -91q-131 0 -222.5 91t-91.5 220zM221 1116q0 -66 44 -110.5t110 -44.5q63 0 108 45t45 110.5t-45 112.5t-108 47q-66 0 -110 -46t-44 -114z" />
<glyph unicode="&#xb1;" horiz-adv-x="1056" d="M4 463q0 51 45 90v6q-45 39 -45 88l4 2q53 -25 172 -24h191v184q0 51 -6.5 94t-12.5 58l-8 18l2 2q51 0 92 -43h4q43 43 95 43l2 -2q-29 -55 -29 -170v-184h190q55 0 97.5 6t58.5 12l16 6l5 -2q0 -49 -46 -88v-6q45 -39 46 -90h-5q-53 25 -172 24h-190v-186q0 -51 6 -94 t14 -60l9 -16l-2 -2q-51 0 -95 43h-4q-41 -43 -92 -43l-2 2q27 55 27 170v186h-191q-55 0 -97 -6t-60 -12l-15 -6h-4zM6 -45q0 47 53 82v4q-53 35 -53 82l2 2q66 -25 203 -25h461q59 0 110.5 7.5t69.5 11.5l20 6l5 -2q0 -47 -54 -82v-4q53 -35 54 -82l-5 -2q-63 23 -200 22 h-461q-59 0 -110.5 -6t-71.5 -10l-21 -6z" />
<glyph unicode="&#xb2;" horiz-adv-x="634" d="M4 1159q0 24 11 47.5t28 46.5q-16 7 -16 28q0 13 5 23.5t11 19t12 14t8 5.5q2 2 8 2q4 0 6 -9.5t7 -21t18.5 -22t42.5 -13.5l143 3q14 -2 31 -8.5t33 -19.5t26.5 -32.5t10.5 -48.5q0 -19 -4.5 -34.5t-11.5 -28.5q-1 0 -3 -2t-7 -8.5t-13.5 -18t-22.5 -31.5 q-30 -35 -39.5 -59t-9.5 -38q0 -18 9 -27q-13 -2 -29 -11t-32 -22.5t-31.5 -32.5t-27.5 -40q-5 -9 -10.5 -19.5t-5.5 -23.5q0 -17 13.5 -25.5t26.5 -12.5h122q2 -2 6 -2q5 0 18.5 9t42.5 43q27 33 35.5 57.5t8.5 38.5v8t-1 7q4 1 12 1q14 0 25 -10.5t11 -40.5 q0 -23 -7 -44.5t-17 -38t-19.5 -27.5t-13.5 -15q-10 -7 -19 -9q3 -7 4 -16t1 -15q0 -21 -8.5 -35t-18.5 -22t-18.5 -11t-7.5 -3q1 4 1 15q-3 28 -23.5 40.5t-44.5 12.5l-215 6q-18 2 -34 11t-16 33q0 21 8.5 37t18.5 27l65 94q7 12 17.5 31t10.5 38q0 12 -6 18t-13 10 q1 0 22 13t46.5 34.5t48 48t28.5 52.5q1 6 2 12.5t1 13.5q0 20 -6 33.5t-14 22.5t-16.5 13t-11.5 6l-88 2q-7 -2 -15 -7.5t-16 -15t-13.5 -23.5t-5.5 -32q0 -30 23 -52.5t49 -33.5q-13 -9 -33 -9q-8 0 -26.5 5t-37.5 16.5t-34 29t-15 43.5z" />
<glyph unicode="&#xb3;" horiz-adv-x="1083" d="M3 710q-1 25 6.5 42.5t15.5 28.5q11 13 23 22q-5 -17 -7 -33q-2 -14 -0.5 -28.5t8.5 -24.5q16 -21 31.5 -32.5t27.5 -18.5q15 -6 29 -9q9 -3 19 -6q8 -2 16.5 -3.5t15.5 0.5q5 -2 17 0.5t24 7.5q13 5 30 11q7 3 15 10q7 6 13.5 17.5t10.5 30.5q3 20 -3.5 35.5t-16.5 25.5 q-11 12 -27 22q11 5 20 13q8 7 14.5 17t9.5 24q2 12 -3 24t-12 21q-7 11 -18 18q-7 1 -20 2q-11 1 -30 0t-50 -4t-46.5 1.5t-23.5 11.5t-9 19q2 9 9 14q6 5 18 7.5t34 -0.5q42 -6 64 -4q12 0 21 2q5 1 9 6t7.5 13.5t5.5 23.5t-5 27t-16 21q-10 11 -23 19q11 9 21 20 q7 9 13.5 24t7.5 34q1 20 -6 31.5t-15 18.5q-11 8 -23 11q-13 4 -24 7q-9 2 -18 3t-14 -1q-12 0 -23.5 -4t-21.5 -9q-11 -5 -22 -12q-7 -7 -12 -16q-5 -8 -9 -17t-2 -18q-1 -14 9 -27t20 -24q13 -12 29 -24q-16 -4 -33 -4q-13 0 -27.5 4.5t-24.5 16.5q-14 21 -15.5 43.5 t1.5 42.5q3 22 11 43q-7 9 -11 19q-3 7 -6 18t-1 22t6 20t10 16q6 8 15 14q1 -11 5 -21q4 -9 12.5 -18t22.5 -17q15 -8 33 -9t34 1q19 3 37 8q21 2 42 2q17 0 36.5 -2t33.5 -11q13 -9 23.5 -19t18.5 -17q9 -10 15 -20q4 -4 7 -9q4 -4 9 -12t11 -21t13 -19.5t13 -11.5 q7 -3 15 -5q-7 -6 -14 -13q-6 -6 -12 -13t-10 -16q-5 -9 -8 -17t-6 -13l-6 -12l-3 -9q-2 -5 -5 -13.5t-11 -19.5q-9 -14 -15 -21.5t-11 -12.5t-9 -7l45 -43l42 -63l21 -42q4 -7 10 -13t11 -10q6 -4 13 -8q-11 -7 -21 -16q-7 -8 -15 -16.5t-13 -16.5q-12 -18 -20.5 -31 t-13.5 -22q-7 -11 -10 -18q-5 -8 -12 -17q-6 -8 -14.5 -16t-22.5 -15q-8 -5 -23.5 -9t-29.5 -6q-18 -3 -37 -5q-14 1 -30 3q-14 2 -32.5 4.5t-40.5 7.5q-13 2 -29.5 -4.5t-33.5 -15.5q-18 -11 -38 -23q-3 2 -4 5q-3 8 4 28q4 11 8.5 15.5t8.5 6.5q4 3 8 4q-11 4 -20 15 q-7 8 -13.5 23.5t-7.5 39.5z" />
<glyph unicode="&#xb4;" horiz-adv-x="1705" d="M512 1116v60l258 51l98 63q37 25 72 37q29 10 56.5 10t39.5 -22q10 -25 8 -43.5t-10 -30.5q-8 -14 -26 -24l-140 -101h-356z" />
<glyph unicode="&#xb6;" horiz-adv-x="1159" d="M41 1020v8q98 31 121 107q43 139 149.5 219t263.5 80q166 0 281 -82h2q55 61 133 61q59 0 103.5 -42t56.5 -101l-6 -4q-33 29 -80 28q-98 0 -98 -116v-304q0 -125 127 -163v-9q-127 -39 -127 -163v-303q0 -117 98 -117q47 0 80 28l6 -4q-12 -59 -56 -101t-104 -42 q-78 0 -133 61h-2q-55 -61 -133 -61q-59 0 -103.5 42t-56.5 101l6 4q33 -29 80 -28q98 0 99 117v215q0 143 -127 143q-184 0 -301 88t-158 227q-20 80 -121 111z" />
<glyph unicode="&#xb7;" horiz-adv-x="368" d="M4 637q0 53 29.5 91t70.5 38t71 -38t30 -91t-30 -90t-71 -37t-70.5 37t-29.5 90z" />
<glyph unicode="&#xb8;" horiz-adv-x="440" d="M82 -358q4 31 49 55v4q-25 31 -25 59v9l7 2q49 -31 118 -31q78 0 78 39q0 47 -116 51l83 209h76l-41 -133q43 -8 79 -39t36 -80q0 -154 -268 -154q-23 0 -72 5z" />
<glyph unicode="&#xb9;" horiz-adv-x="819" d="M1 731q34 0 59 11q11 4 21 11.5t17 18.5t9.5 26.5t-0.5 35.5q-6 41 -13 68.5t-14 43.5q-8 19 -14 30q12 4 21 18q9 13 16 37t9 66q0 42 -12 63t-27 30q-17 10 -40 10l205 79q-12 -9 -21 -29q-8 -17 -13.5 -47.5t-3.5 -78.5q1 -48 8 -77t16 -44q10 -18 22 -24 q-11 -20 -21 -43q-9 -20 -18 -47t-14 -59q-2 -21 1.5 -36.5t10 -26.5t16 -18t19.5 -11q22 -9 54 -6q-4 -13 -11 -23q-7 -9 -20 -17.5t-34 -11.5q-23 -3 -39 0t-26 7q-12 5 -20 12q-10 -6 -21 -9q-22 -8 -57 -10q-18 -2 -30.5 6.5t-20.5 18.5q-10 11 -14 26z" />
<glyph unicode="&#xba;" horiz-adv-x="808" d="M41 1010v8q94 29 94 123q0 127 79 209t204 82t203.5 -82t78.5 -209q0 -94 95 -123v-8q-94 -29 -95 -123q0 -127 -78.5 -209t-203.5 -82t-204 82t-79 209q0 94 -94 123zM291 887q0 -74 33.5 -115t93 -41t93.5 41t34 115q0 94 -94 123v8q94 29 94 123q0 74 -34 114.5 t-93.5 40.5t-93 -41t-33.5 -114q0 -94 94 -123v-8q-94 -29 -94 -123z" />
<glyph unicode="&#xbb;" horiz-adv-x="1085" d="M4 41l201 422l-201 424l59 41l422 -461v-6l-422 -461zM430 41l201 422l-201 424l59 41l422 -461v-6l-422 -461z" />
<glyph unicode="&#xbc;" horiz-adv-x="3328" d="M220 735q31 0 55 10q10 5 19 12t15.5 18t9 26.5t0.5 35.5q-6 41 -12.5 68t-13.5 43q-7 19 -13 30q11 4 20 18q8 12 14.5 36t8.5 66q0 41 -11 62.5t-25 30.5q-16 9 -37 9l190 79q-10 -9 -19 -29q-7 -17 -12.5 -47t-3.5 -78q1 -48 7.5 -76.5t14.5 -43.5q9 -18 21 -24 q-11 -20 -20 -43q-8 -20 -16.5 -46.5t-13.5 -58.5q-1 -21 2 -36.5t9 -26.5t15 -17.5t18 -10.5q21 -9 50 -7q-3 -13 -10 -23q-7 -9 -18.5 -17t-31.5 -11q-21 -3 -36 0t-25 7q-11 5 -18 12q-9 -6 -20 -9q-20 -8 -52 -10q-17 -2 -29 6.5t-19 17.5q-9 12 -13 27zM425 14 q46 79 94 199l356 889q22 54 38 104t22 75l6 22l1 4q11 0 23.5 -16t18.5 -37h2q31 52 84 53l1 -4q-46 -79 -94 -201l-356 -889q-21 -53 -37.5 -103t-22.5 -74l-6 -22l-1 -4q-11 0 -23.5 16t-18.5 36h-2q-30 -52 -83 -52zM689 242q1 10 7.5 25t14.5 28q8 16 19 34 q19 29 34 55q15 22 29 43l22 33q7 11 25.5 36.5t36.5 51.5q21 30 46 67q5 7 10 17q4 8 7.5 18.5t4.5 22.5q0 12 -2 24.5t-6 21.5q-4 12 -7 20q3 0 9 -2l11 -5.5t18 -12.5q9 -8 14.5 -15.5t8.5 -12.5q3 -7 5 -13q2 -3 6 -7q5 -2 13.5 -4t23.5 -1q27 1 42 6l14 6q5 8 18 13 q9 4 24.5 5.5t38.5 -4.5q23 -7 35 -18.5t17 -23.5q5 -14 5 -28q-4 4 -11 8q-7 3 -19.5 5.5t-31.5 0.5q-20 -2 -31.5 -10.5t-17.5 -19.5q-7 -12 -9 -26l-5 -305q7 -7 18 -11q10 -4 26 -2t41 13q25 12 37.5 20.5t18.5 15.5q5 8 4 15q4 -15 5 -28q1 -12 -2 -24t-12 -23 q-8 -11 -14.5 -15.5t-10.5 -7.5q-5 -3 -9 -3l-85 -14q-10 -9 -16 -27q-5 -15 -7 -39t7 -61t24.5 -48t31.5 -9q20 2 40 17q-2 -20 -9 -36q-6 -14 -18.5 -25.5t-33.5 -14.5q-22 -2 -38 1t-28 6q-13 4 -23 9q-4 -6 -14 -11q-8 -5 -21 -9t-34 -4q-21 -1 -33 7t-20 18 q-8 12 -13 27q2 -3 8 -3q5 0 13.5 2t22.5 10q15 8 22 16t9 13q3 6 2 13v138l-279 13q-8 0 -15 4q-5 3 -10 8.5t-4 15.5zM799.5 275.5q0.5 -6.5 0.5 -8.5v-2h196v272q0 11 -2 18q-2 6 -6.5 11t-13.5 3q-8 -2 -15 -7.5t-13 -10.5q-5 -6 -11 -14l-124 -188q-3 -4 -5 -12 q-6 -14 -6 -40q-1 -15 -0.5 -21.5z" />
<glyph unicode="&#xbd;" horiz-adv-x="3164" d="M126 729q35 0 61 11q11 5 21.5 12.5t17.5 18.5t10 26.5t0 36.5q-6 41 -13.5 69t-14.5 44q-8 19 -15 30q13 4 22 19q9 12 16.5 36.5t8.5 66.5t-11.5 63.5t-27.5 31.5q-18 9 -42 9l212 80q-12 -9 -21 -30q-8 -17 -14 -47.5t-4 -79.5q1 -48 8.5 -77t16.5 -45q10 -18 23 -24 q-12 -20 -22 -44q-9 -20 -18.5 -47t-14.5 -59q-2 -22 1.5 -37.5t10 -26.5t16.5 -18t20 -11q23 -9 56 -7q-4 -13 -12 -23q-7 -9 -20 -17.5t-35 -11.5q-24 -3 -40 0t-27 7q-13 5 -21 12q-10 -6 -22 -9q-22 -8 -58 -10q-19 -2 -32.5 6.5t-21.5 18.5q-10 11 -14 26zM330 4 q46 81 96 203l365 906q22 54 38.5 105.5t22.5 76.5l6 23l1 3q12 0 24.5 -16t18.5 -37h3q31 52 85 53l1 -3q-47 -81 -96 -205l-365 -906q-22 -54 -38.5 -105t-22.5 -75l-6 -23l-2 -4q-11 0 -24 16t-18 37h-3q-31 -53 -85 -53zM787 485q0 25 9 49t23 47q-13 7 -13 28 q0 13 4 24t9 19.5t10 14t6 5.5q2 2 7 2q3 0 4.5 -9.5t5.5 -21t15 -22.5t36 -14l116 3q11 -2 25 -8.5t27 -20t21.5 -33t8.5 -49.5q0 -19 -3.5 -35t-9.5 -29q-1 0 -2.5 -2t-5.5 -8.5t-11 -18.5t-18 -31q-25 -37 -32.5 -61t-7.5 -39q0 -18 7 -27q-10 -2 -23 -11.5t-26.5 -23 t-26 -32.5t-22.5 -41q-4 -8 -8 -19t-4 -24q0 -17 10.5 -26t21.5 -13h100q1 -2 4 -2q4 0 15 9t35 44q22 33 29 58t7 40v7t-1 8h10q12 0 21 -10t9 -41q0 -24 -6.5 -45.5t-14.5 -38.5t-15.5 -28.5t-11.5 -14.5q-7 -8 -15 -9q3 -8 3.5 -17t0.5 -15q0 -21 -7 -35.5t-15 -22.5 t-15 -11t-6 -3q1 4 1 15q-3 28 -19.5 41t-36.5 13l-175 6q-15 2 -28 11t-13 34q0 21 7 37t15 28l53 96q6 11 14.5 30.5t8.5 39.5q0 11 -4.5 17.5t-11.5 10.5q1 0 18 13t38 35t39.5 49t23.5 53q1 6 2 13t1 14q0 20 -5 34t-11.5 23t-13.5 13.5t-10 5.5l-72 2q-5 -2 -12 -7.5 t-13.5 -15t-11 -23.5t-4.5 -33q0 -31 19.5 -53.5t40.5 -34.5q-11 -8 -28 -9q-6 0 -21 5.5t-31 17t-28 29.5t-12 44z" />
<glyph unicode="&#xbe;" horiz-adv-x="3594" d="M206 718q-1 23 6 40.5t15 27.5q10 13 22 21q-6 -16 -8 -31q-1 -14 0 -28t9 -24q14 -20 29 -31.5t26 -17.5q14 -7 27 -10q9 -2 19 -6q7 -2 15 -3t15 1q4 -2 15.5 0t22.5 7q13 5 29 12q7 2 15 9q6 6 12 17t9 30q4 19 -2.5 34t-15.5 25q-10 12 -26 21q10 6 19 13 q8 7 14.5 16.5t8.5 23.5q2 12 -3 23.5t-11 19.5q-7 11 -18 18q-6 1 -18 2q-10 1 -28 0t-48 -3q-29 -3 -44 1t-22 11q-8 7 -8 19q2 8 8 13t17 7.5t32 -0.5q40 -6 61 -4q11 0 19 2q6 1 10 6q3 5 6 13t5 23q2 14 -4.5 26t-14.5 21q-10 11 -22 18q10 8 19 19q7 9 13 23.5t7 33.5 t-5.5 30.5t-14.5 18.5q-10 7 -21 10q-13 4 -23 7q-9 2 -17 3t-13 -1q-11 0 -22.5 -4t-20.5 -9q-10 -4 -20 -11q-7 -7 -12 -16q-5 -8 -8.5 -16.5t-1.5 -17.5q-1 -13 8 -26t19 -23q12 -13 28 -24q-16 -4 -31 -4q-13 0 -27 4.5t-23 16.5q-13 20 -14.5 42t1.5 41q3 22 10 42 q-6 9 -10 18q-3 8 -6 18.5t-1 20.5q2 11 6 20t10 15q5 8 13 15q1 -11 6 -21q3 -9 11 -18t22 -17q14 -7 31 -8t32 1q17 3 35 7q20 3 39 3q17 0 35.5 -2.5t30.5 -10.5q13 -8 23 -18t18 -17q8 -10 14 -19q3 -4 7 -9q3 -4 8 -12t10 -20q6 -13 12.5 -19.5t12.5 -10.5t14 -6 q-7 -5 -13 -12q-6 -5 -11.5 -12.5t-9.5 -16.5q-5 -8 -7.5 -15.5t-5.5 -12.5l-6 -12q-1 -3 -2 -9q-2 -5 -5 -13t-11 -19q-8 -13 -14 -20.5t-11 -12.5q-4 -5 -8 -7l42 -42l41 -61l19 -40q4 -8 9.5 -14t10.5 -9q5 -4 12 -8q-10 -7 -19 -16q-7 -7 -15 -15.5t-12 -16.5 q-11 -17 -19 -29.5t-13 -21.5q-7 -11 -10 -18q-5 -8 -11 -16t-14 -16t-21 -15q-8 -5 -22 -9t-28 -5q-17 -3 -35 -5q-13 1 -28 3q-13 2 -30.5 4.5t-38.5 6.5q-12 2 -28 -4t-32 -15q-17 -10 -36 -23q-3 2 -4 6q-3 8 4 27q4 10 8 15t8 6q4 3 7 4q-10 4 -18 15q-7 8 -13 23 t-7 39zM317 -4q48 82 99 205l379 914q23 55 40 107t23 77l6 23l2 4q12 0 25.5 -16.5t19.5 -37.5h2q32 53 89 54l1 -4q-49 -82 -100 -207l-378 -914q-23 -55 -40.5 -106.5t-23.5 -75.5l-6 -23l-2 -4q-12 0 -25 16.5t-19 36.5h-2q-33 -53 -89 -53zM636 270q1 9 6 23t11 27 q6 15 15 33q14 27 27 52q11 21 22 41t17 32q6 9 20.5 33.5t28.5 49.5q16 29 36 64q4 7 8 16q3 8 5.5 18t3.5 22q0 11 -2 22.5t-4 21.5q-3 11 -6 18q3 0 7 -2q3 -2 8.5 -5.5t13.5 -10.5q8 -8 12 -15.5t7 -12.5l4 -12q1 -3 5 -6q3 -2 10 -4t18 -1q21 1 33 6q6 2 11 5 q4 8 14 12q7 4 19 5.5t31 -4.5q17 -6 26.5 -17t13.5 -22q4 -14 4 -27q-3 4 -9 7q-5 3 -15 5.5t-25 0.5t-24 -10t-14 -19q-6 -11 -7 -25l-4 -290q5 -7 14 -11q8 -3 20.5 -1.5t32.5 12.5q19 11 29 19.5t14 14.5q4 8 3 15q4 -15 4 -27q1 -11 -1.5 -23t-8.5 -22 q-7 -10 -12 -14.5t-8 -6.5q-4 -3 -7 -3l-66 -13q-9 -9 -13 -27q-4 -14 -5.5 -37t5.5 -58t19 -46t25 -9q15 2 31 17q-1 -20 -7 -35q-5 -13 -14.5 -24t-26.5 -13t-29.5 0.5t-21.5 5.5q-11 4 -18 9q-3 -6 -11 -11q-6 -5 -16.5 -8.5t-26.5 -3.5q-16 -1 -26 6.5t-15 17.5 q-7 11 -11 25q2 -3 7 -3q4 0 10 2t18 11q11 6 16.5 14t7.5 13t1 12v132l-218 12q-6 0 -11 4q-4 3 -8 8t-3 15zM722.5 301.5q0.5 -6.5 0.5 -8.5v-2h153v260q0 10 -2 17q-2 6 -5.5 10.5t-9.5 2.5q-7 -2 -12.5 -7t-9.5 -10q-5 -6 -9 -13l-97 -179q-2 -4 -4 -11q-4 -14 -4 -39 q-1 -14 -0.5 -20.5z" />
<glyph unicode="&#xbf;" horiz-adv-x="757" d="M10 385q0 129 88 236q29 35 29 73.5t-27 77.5l6 6q33 -16 66 -16q74 0 118 60.5t44 115.5q0 27 -8.5 51.5t-16.5 34.5l-10 10l2 4q82 0 135 -57h4q53 57 135 57q4 -16 5 -41q0 -139 -140 -290q-39 -41 -39 -97q0 -45 27 -88l-6 -6q-29 14 -64 14q-45 0 -89 -38.5 t-44 -110.5q0 -80 51.5 -125t143.5 -45q78 0 127 44t49 101q0 43 -27 76l2 8q57 0 102.5 -35.5t45.5 -91.5q0 -45 -21 -82v-2q55 -33 56 -104q0 -88 -99 -129l-6 4q6 20 6 35q0 51 -65 51q-27 0 -92.5 -20.5t-130.5 -20.5q-156 0 -256.5 96.5t-100.5 243.5zM293 1320.5 q0 63.5 41 104.5t104.5 41t104.5 -41t41 -104.5t-41 -104t-104.5 -40.5t-104.5 40.5t-41 104z" />
<glyph unicode="&#xc0;" horiz-adv-x="1433" d="M6 72q16 -10 39 -6q20 2 48 16t67 49t61.5 75t34.5 75q14 39 20 75q6 33 13 68q4 29 6 60.5t0 60.5q-4 37 -15.5 64.5t-23.5 47.5q-14 23 -33 41q18 20 39 47q16 23 36.5 54.5t39.5 72.5q33 84 55 160q12 41 23 80q8 29 12 59q4 27 2 58t-14 59q-12 29 -33 37t-39 10 q-23 0 -45 -6q25 27 49 49q23 18 50.5 33.5t58.5 18.5q29 0 54.5 -11.5t43.5 -27.5q23 -18 39 -41q16 23 39 41q20 16 49 28.5t66 10.5q35 -4 62.5 -15.5t45.5 -28.5q23 -18 39 -38q-10 4 -21 2q-10 -2 -24 -9.5t-31 -25.5q-16 -18 -22 -43t-9 -47q-2 -27 0 -56q2 -25 9 -61 q4 -31 14 -77t27 -105q16 -59 43.5 -102.5t52.5 -71.5q29 -33 59 -54q-16 -27 -24 -55q-8 -27 -12.5 -59.5t4.5 -73.5q8 -41 17 -71.5t15 -49.5q8 -23 15 -37q10 -33 26 -67q14 -29 32.5 -64.5t47.5 -68.5q25 -35 52.5 -40.5t52.5 5.5q29 10 57 35q-14 -45 -37 -80 q-20 -29 -51 -51.5t-72 -18.5q-45 4 -76.5 11t-54.5 18q-25 10 -41 24q-12 -20 -33 -32q-16 -10 -42.5 -18.5t-61.5 -2.5q-35 4 -59.5 19.5t-40.5 31.5q-18 20 -31 43q37 -14 72 -8q29 4 57.5 27.5t44.5 83.5q16 68 2 104.5t-37 52.5q-27 20 -65 21l-271 2q-37 -2 -63 -21 q-23 -16 -41.5 -50t-14.5 -97q2 -53 24 -82t50 -41q31 -14 72 -16q-4 -20 -17 -35q-10 -14 -32.5 -24.5t-61.5 -10.5t-64.5 6t-41.5 15q-18 8 -29 22q-12 -14 -33 -22q-16 -8 -44.5 -14.5t-71.5 -6.5q-45 0 -66.5 10.5t-30.5 24.5q-10 14 -8 35zM198 1671q-3 19 9 43 q12 23 39.5 23t56.5 -11q33 -12 72 -36l98 -64l258 -51v-59h-356l-139 100q-18 10 -27 24q-8 12 -11 31zM449 596q0 -27 22.5 -40t50.5 -17q33 -6 74 -4q41 -4 78 0q29 4 56.5 12t33.5 28q4 16 -5 47t-20 64q-12 37 -30 82l-113 338q-41 -125 -74 -229q-14 -45 -27.5 -89.5 t-23.5 -83t-16 -67.5t-6 -41z" />
<glyph unicode="&#xc1;" horiz-adv-x="1433" d="M6 72q16 -10 39 -6q20 2 48 16t67 49t61.5 75t34.5 75q14 39 20 75q6 33 13 68q4 29 6 60.5t0 60.5q-4 37 -15.5 64.5t-23.5 47.5q-14 23 -33 41q18 20 39 47q16 23 36.5 54.5t39.5 72.5q33 84 55 160q12 41 23 80q8 29 12 59q4 27 2 58t-14 59q-12 29 -33 37t-39 10 q-23 0 -45 -6q25 27 49 49q23 18 50.5 33.5t58.5 18.5q29 0 54.5 -11.5t43.5 -27.5q23 -18 39 -41q16 23 39 41q20 16 49 28.5t66 10.5q35 -4 62.5 -15.5t45.5 -28.5q23 -18 39 -38q-10 4 -21 2q-10 -2 -24 -9.5t-31 -25.5q-16 -18 -22 -43t-9 -47q-2 -27 0 -56q2 -25 9 -61 q4 -31 14 -77t27 -105q16 -59 43.5 -102.5t52.5 -71.5q29 -33 59 -54q-16 -27 -24 -55q-8 -27 -12.5 -59.5t4.5 -73.5q8 -41 17 -71.5t15 -49.5q8 -23 15 -37q10 -33 26 -67q14 -29 32.5 -64.5t47.5 -68.5q25 -35 52.5 -40.5t52.5 5.5q29 10 57 35q-14 -45 -37 -80 q-20 -29 -51 -51.5t-72 -18.5q-45 4 -76.5 11t-54.5 18q-25 10 -41 24q-12 -20 -33 -32q-16 -10 -42.5 -18.5t-61.5 -2.5q-35 4 -59.5 19.5t-40.5 31.5q-18 20 -31 43q37 -14 72 -8q29 4 57.5 27.5t44.5 83.5q16 68 2 104.5t-37 52.5q-27 20 -65 21l-271 2q-37 -2 -63 -21 q-23 -16 -41.5 -50t-14.5 -97q2 -53 24 -82t50 -41q31 -14 72 -16q-4 -20 -17 -35q-10 -14 -32.5 -24.5t-61.5 -10.5t-64.5 6t-41.5 15q-18 8 -29 22q-12 -14 -33 -22q-16 -8 -44.5 -14.5t-71.5 -6.5q-45 0 -66.5 10.5t-30.5 24.5q-10 14 -8 35zM449 596q0 -27 22.5 -40 t50.5 -17q33 -6 74 -4q41 -4 78 0q29 4 56.5 12t33.5 28q4 16 -5 47t-20 64q-12 37 -30 82l-113 338q-41 -125 -74 -229q-14 -45 -27.5 -89.5t-23.5 -83t-16 -67.5t-6 -41zM494 1526v60l258 51l98 63q37 25 72 37q29 10 56.5 10t39.5 -22q10 -25 8 -43.5t-10 -30.5 q-8 -14 -26 -24l-140 -101h-356z" />
<glyph unicode="&#xc2;" horiz-adv-x="1433" d="M6 72q16 -10 39 -6q20 2 48 16t67 49t61.5 75t34.5 75q14 39 20 75q6 33 13 68q4 29 6 60.5t0 60.5q-4 37 -15.5 64.5t-23.5 47.5q-14 23 -33 41q18 20 39 47q16 23 36.5 54.5t39.5 72.5q33 84 55 160q12 41 23 80q8 29 12 59q4 27 2 58t-14 59q-12 29 -33 37t-39 10 q-23 0 -45 -6q25 27 49 49q23 18 50.5 33.5t58.5 18.5q29 0 54.5 -11.5t43.5 -27.5q23 -18 39 -41q16 23 39 41q20 16 49 28.5t66 10.5q35 -4 62.5 -15.5t45.5 -28.5q23 -18 39 -38q-10 4 -21 2q-10 -2 -24 -9.5t-31 -25.5q-16 -18 -22 -43t-9 -47q-2 -27 0 -56q2 -25 9 -61 q4 -31 14 -77t27 -105q16 -59 43.5 -102.5t52.5 -71.5q29 -33 59 -54q-16 -27 -24 -55q-8 -27 -12.5 -59.5t4.5 -73.5q8 -41 17 -71.5t15 -49.5q8 -23 15 -37q10 -33 26 -67q14 -29 32.5 -64.5t47.5 -68.5q25 -35 52.5 -40.5t52.5 5.5q29 10 57 35q-14 -45 -37 -80 q-20 -29 -51 -51.5t-72 -18.5q-45 4 -76.5 11t-54.5 18q-25 10 -41 24q-12 -20 -33 -32q-16 -10 -42.5 -18.5t-61.5 -2.5q-35 4 -59.5 19.5t-40.5 31.5q-18 20 -31 43q37 -14 72 -8q29 4 57.5 27.5t44.5 83.5q16 68 2 104.5t-37 52.5q-27 20 -65 21l-271 2q-37 -2 -63 -21 q-23 -16 -41.5 -50t-14.5 -97q2 -53 24 -82t50 -41q31 -14 72 -16q-4 -20 -17 -35q-10 -14 -32.5 -24.5t-61.5 -10.5t-64.5 6t-41.5 15q-18 8 -29 22q-12 -14 -33 -22q-16 -8 -44.5 -14.5t-71.5 -6.5q-45 0 -66.5 10.5t-30.5 24.5q-10 14 -8 35zM313 1584l276 243h4 l277 -243l-25 -35l-254 116l-254 -116zM449 596q0 -27 22.5 -40t50.5 -17q33 -6 74 -4q41 -4 78 0q29 4 56.5 12t33.5 28q4 16 -5 47t-20 64q-12 37 -30 82l-113 338q-41 -125 -74 -229q-14 -45 -27.5 -89.5t-23.5 -83t-16 -67.5t-6 -41z" />
<glyph unicode="&#xc3;" horiz-adv-x="1433" d="M6 72q16 -10 39 -6q20 2 48 16t67 49t61.5 75t34.5 75q14 39 20 75q6 33 13 68q4 29 6 60.5t0 60.5q-4 37 -15.5 64.5t-23.5 47.5q-14 23 -33 41q18 20 39 47q16 23 36.5 54.5t39.5 72.5q33 84 55 160q12 41 23 80q8 29 12 59q4 27 2 58t-14 59q-12 29 -33 37t-39 10 q-23 0 -45 -6q25 27 49 49q23 18 50.5 33.5t58.5 18.5q29 0 54.5 -11.5t43.5 -27.5q23 -18 39 -41q16 23 39 41q20 16 49 28.5t66 10.5q35 -4 62.5 -15.5t45.5 -28.5q23 -18 39 -38q-10 4 -21 2q-10 -2 -24 -9.5t-31 -25.5q-16 -18 -22 -43t-9 -47q-2 -27 0 -56q2 -25 9 -61 q4 -31 14 -77t27 -105q16 -59 43.5 -102.5t52.5 -71.5q29 -33 59 -54q-16 -27 -24 -55q-8 -27 -12.5 -59.5t4.5 -73.5q8 -41 17 -71.5t15 -49.5q8 -23 15 -37q10 -33 26 -67q14 -29 32.5 -64.5t47.5 -68.5q25 -35 52.5 -40.5t52.5 5.5q29 10 57 35q-14 -45 -37 -80 q-20 -29 -51 -51.5t-72 -18.5q-45 4 -76.5 11t-54.5 18q-25 10 -41 24q-12 -20 -33 -32q-16 -10 -42.5 -18.5t-61.5 -2.5q-35 4 -59.5 19.5t-40.5 31.5q-18 20 -31 43q37 -14 72 -8q29 4 57.5 27.5t44.5 83.5q16 68 2 104.5t-37 52.5q-27 20 -65 21l-271 2q-37 -2 -63 -21 q-23 -16 -41.5 -50t-14.5 -97q2 -53 24 -82t50 -41q31 -14 72 -16q-4 -20 -17 -35q-10 -14 -32.5 -24.5t-61.5 -10.5t-64.5 6t-41.5 15q-18 8 -29 22q-12 -14 -33 -22q-16 -8 -44.5 -14.5t-71.5 -6.5q-45 0 -66.5 10.5t-30.5 24.5q-10 14 -8 35zM203 1592v2q29 16 61.5 61 t72.5 78t101 33q57 0 151.5 -45t129.5 -45q47 0 69.5 36.5t14.5 96.5l2 2q18 -10 37.5 -32.5t23.5 -41.5h5q45 12 88 -10v-2q-29 -18 -61 -64.5t-71.5 -77t-103.5 -30.5q-66 0 -155.5 45t-122.5 45q-47 0 -71 -37t-15 -96l-2 -2q-49 27 -62 73h-4q-47 -12 -88 11zM449 596 q0 -27 22.5 -40t50.5 -17q33 -6 74 -4q41 -4 78 0q29 4 56.5 12t33.5 28q4 16 -5 47t-20 64q-12 37 -30 82l-113 338q-41 -125 -74 -229q-14 -45 -27.5 -89.5t-23.5 -83t-16 -67.5t-6 -41z" />
<glyph unicode="&#xc4;" horiz-adv-x="1433" d="M6 72q16 -10 39 -6q20 2 48 16t67 49t61.5 75t34.5 75q14 39 20 75q6 33 13 68q4 29 6 60.5t0 60.5q-4 37 -15.5 64.5t-23.5 47.5q-14 23 -33 41q18 20 39 47q16 23 36.5 54.5t39.5 72.5q33 84 55 160q12 41 23 80q8 29 12 59q4 27 2 58t-14 59q-12 29 -33 37t-39 10 q-23 0 -45 -6q25 27 49 49q23 18 50.5 33.5t58.5 18.5q29 0 54.5 -11.5t43.5 -27.5q23 -18 39 -41q16 23 39 41q20 16 49 28.5t66 10.5q35 -4 62.5 -15.5t45.5 -28.5q23 -18 39 -38q-10 4 -21 2q-10 -2 -24 -9.5t-31 -25.5q-16 -18 -22 -43t-9 -47q-2 -27 0 -56q2 -25 9 -61 q4 -31 14 -77t27 -105q16 -59 43.5 -102.5t52.5 -71.5q29 -33 59 -54q-16 -27 -24 -55q-8 -27 -12.5 -59.5t4.5 -73.5q8 -41 17 -71.5t15 -49.5q8 -23 15 -37q10 -33 26 -67q14 -29 32.5 -64.5t47.5 -68.5q25 -35 52.5 -40.5t52.5 5.5q29 10 57 35q-14 -45 -37 -80 q-20 -29 -51 -51.5t-72 -18.5q-45 4 -76.5 11t-54.5 18q-25 10 -41 24q-12 -20 -33 -32q-16 -10 -42.5 -18.5t-61.5 -2.5q-35 4 -59.5 19.5t-40.5 31.5q-18 20 -31 43q37 -14 72 -8q29 4 57.5 27.5t44.5 83.5q16 68 2 104.5t-37 52.5q-27 20 -65 21l-271 2q-37 -2 -63 -21 q-23 -16 -41.5 -50t-14.5 -97q2 -53 24 -82t50 -41q31 -14 72 -16q-4 -20 -17 -35q-10 -14 -32.5 -24.5t-61.5 -10.5t-64.5 6t-41.5 15q-18 8 -29 22q-12 -14 -33 -22q-16 -8 -44.5 -14.5t-71.5 -6.5q-45 0 -66.5 10.5t-30.5 24.5q-10 14 -8 35zM307 1682q0 47 35 82t82 35 t81.5 -35t34.5 -82t-34.5 -82t-81.5 -35t-82 35t-35 82zM449 596q0 -27 22.5 -40t50.5 -17q33 -6 74 -4q41 -4 78 0q29 4 56.5 12t33.5 28q4 16 -5 47t-20 64q-12 37 -30 82l-113 338q-41 -125 -74 -229q-14 -45 -27.5 -89.5t-23.5 -83t-16 -67.5t-6 -41zM651 1682 q0 47 35 82t82 35t81.5 -35t34.5 -82t-34.5 -82t-81.5 -35t-82 35t-35 82z" />
<glyph unicode="&#xc5;" horiz-adv-x="1433" d="M6 72q16 -10 39 -6q20 2 48 16t67 49t61.5 75t34.5 75q14 39 20 75q6 33 13 68q4 29 6 60.5t0 60.5q-4 37 -15.5 64.5t-23.5 47.5q-14 23 -33 41q18 20 39 47q16 23 36.5 54.5t39.5 72.5q33 84 55 160q12 41 23 80q8 29 12 59q4 27 2 58t-14 59q-12 29 -33 37t-39 10 q-23 0 -45 -6q25 27 49 49q23 18 50.5 33.5t58.5 18.5q29 0 54.5 -11.5t43.5 -27.5q23 -18 39 -41q16 23 39 41q20 16 49 28.5t66 10.5q35 -4 62.5 -15.5t45.5 -28.5q23 -18 39 -38q-10 4 -21 2q-10 -2 -24 -9.5t-31 -25.5q-16 -18 -22 -43t-9 -47q-2 -27 0 -56q2 -25 9 -61 q4 -31 14 -77t27 -105q16 -59 43.5 -102.5t52.5 -71.5q29 -33 59 -54q-16 -27 -24 -55q-8 -27 -12.5 -59.5t4.5 -73.5q8 -41 17 -71.5t15 -49.5q8 -23 15 -37q10 -33 26 -67q14 -29 32.5 -64.5t47.5 -68.5q25 -35 52.5 -40.5t52.5 5.5q29 10 57 35q-14 -45 -37 -80 q-20 -29 -51 -51.5t-72 -18.5q-45 4 -76.5 11t-54.5 18q-25 10 -41 24q-12 -20 -33 -32q-16 -10 -42.5 -18.5t-61.5 -2.5q-35 4 -59.5 19.5t-40.5 31.5q-18 20 -31 43q37 -14 72 -8q29 4 57.5 27.5t44.5 83.5q16 68 2 104.5t-37 52.5q-27 20 -65 21l-271 2q-37 -2 -63 -21 q-23 -16 -41.5 -50t-14.5 -97q2 -53 24 -82t50 -41q31 -14 72 -16q-4 -20 -17 -35q-10 -14 -32.5 -24.5t-61.5 -10.5t-64.5 6t-41.5 15q-18 8 -29 22q-12 -14 -33 -22q-16 -8 -44.5 -14.5t-71.5 -6.5q-45 0 -66.5 10.5t-30.5 24.5q-10 14 -8 35zM430 1681q0 84 49 141.5 t121 57.5t121 -57.5t49 -141.5t-49 -140t-121 -56t-121 56t-49 140zM449 596q0 -27 22.5 -40t50.5 -17q33 -6 74 -4q41 -4 78 0q29 4 56.5 12t33.5 28q4 16 -5 47t-20 64q-12 37 -30 82l-113 338q-41 -125 -74 -229q-14 -45 -27.5 -89.5t-23.5 -83t-16 -67.5t-6 -41z M477 1679q0 -61 36 -104t87 -43t87 43t36 104t-36 105.5t-87 44.5t-87 -44.5t-36 -105.5z" />
<glyph unicode="&#xc7;" horiz-adv-x="1290" d="M0 733v8q127 39 127 164q0 266 122 412.5t324 146.5q147 0 249 -75.5t147 -202.5q4 -8 9 -24.5t8 -22.5t7 -18.5t8.5 -16.5t9.5 -11.5t10 -9.5t13 -4t17 -2q45 0 77 33l7 -4q-8 -63 -53.5 -104t-114.5 -41q-45 0 -93 36h-2q-53 -74 -131 -73q-49 0 -88 31.5t-55 80.5l6 4 q29 -18 66 -18q80 4 80 98q0 55 -49.5 100.5t-127.5 45.5q-219 0 -219 -361q0 -125 127 -164v-8q-127 -39 -127 -164q0 -360 219 -360q109 0 162 70.5t53 189.5q0 115 -86 115q-43 0 -65.5 -30t-22.5 -69q0 -12 4 -32l-6 -4q-53 33 -53 110q0 66 49 114t135 48 q47 0 91.5 -21.5t64.5 -50.5h2q18 29 58 50.5t79 21.5q59 0 108.5 -35t61.5 -86l-4 -4q-27 20 -76 20q-123 0 -122 -118v-191q0 -201 114 -274l-4 -15q-188 10 -266 105h-4q-117 -113 -293 -113q-201 0 -313.5 145.5t-112.5 413.5q0 125 -127 164z" />
<glyph unicode="&#xc8;" horiz-adv-x="1280" d="M2 1257q12 43 37 78q20 29 56 53.5t91 26.5q55 0 93 -18.5t61 -40.5q27 -27 43 -62q31 33 68 60q31 23 72.5 44t90.5 27t85 7.5t61 -0.5q27 -2 47 -7q23 -2 45 -4q20 -2 43 -4t45 -4q23 -4 39 8.5t29 26.5q14 16 24 39q6 -12 12 -27q4 -12 9.5 -31.5t5.5 -44.5 q-2 -47 -12 -65q-6 -10 -11 -14q8 -16 17 -39q4 -20 7 -52t-1 -79t-24.5 -79t-43.5 -50q-27 -23 -57 -35q16 45 16 96q0 43 -15 95t-63 104q-47 49 -92 65.5t-80 14.5q-41 -2 -79 -21q-23 -6 -48 -25q-23 -16 -48 -45.5t-48 -80.5q-35 -104 -27.5 -177t27.5 -118 q23 -53 66 -84q39 -20 75 -27q33 -4 71 4t73 45q31 33 40 75t9 77q-2 41 -12 84q25 -10 45 -31q16 -16 29.5 -44t15.5 -67q2 -41 0 -68.5t-6 -43.5q-4 -20 -11 -33q16 -25 29 -55q10 -27 16.5 -64t0.5 -82q-8 -43 -26 -72.5t-34 -46.5q-20 -23 -43 -32q10 49 8 92 q-4 37 -19.5 74.5t-58.5 58.5q-43 20 -82.5 19t-68.5 -11q-35 -10 -64 -33q-33 -29 -53 -71q-16 -37 -23.5 -94.5t15.5 -137.5t55.5 -120.5t65.5 -57.5q37 -20 80 -16q33 -4 69 2q33 4 75 18.5t93 46.5q49 31 70.5 87.5t28.5 109.5q8 63 2 133q23 -12 43 -33 q16 -16 33.5 -42.5t25.5 -61.5q8 -37 4 -71t-12 -62q-8 -33 -25 -60q4 -4 13 -12q12 -16 36 -68q12 -27 11.5 -46t-7.5 -31q-8 -16 -20 -27q-6 10 -20 18q-12 6 -34 11.5t-59 7.5q-37 0 -64.5 -2t-43.5 -6q-20 -4 -33 -9q-25 -4 -59 -8q-29 -4 -73 -5t-99 3 q-57 4 -97.5 15.5t-66.5 23.5q-31 14 -51 33q-16 -27 -45 -47q-25 -16 -65 -28.5t-99 -6.5t-88 32.5t-41 55.5q-14 35 -13 78q33 -18 64 -27q27 -8 56.5 -5t53.5 30q23 25 36.5 58.5t17.5 64.5q6 37 6 73q2 25 0 60q-4 29 -11.5 68.5t-23.5 93.5q-18 51 -36.5 74.5 t-35.5 33.5q-18 10 -34 6q10 0 24 11q10 10 25.5 32.5t31.5 67.5q16 49 23.5 100t7.5 92q0 49 -4 95q-4 31 -14 59q-10 25 -25.5 53.5t-40.5 53.5q-27 23 -57.5 25.5t-56.5 -3.5q-33 -9 -64 -25zM62.5 1701.5q-3.5 18.5 9.5 43.5q12 23 39.5 22.5t56.5 -10.5q33 -12 72 -37 l98 -63l258 -51v-60h-356l-140 101q-18 10 -26 24q-8 12 -11.5 30.5z" />
<glyph unicode="&#xc9;" horiz-adv-x="1280" d="M2 1257q12 43 37 78q20 29 56 53.5t91 26.5q55 0 93 -18.5t61 -40.5q27 -27 43 -62q31 33 68 60q31 23 72.5 44t90.5 27t85 7.5t61 -0.5q27 -2 47 -7q23 -2 45 -4q20 -2 43 -4t45 -4q23 -4 39 8.5t29 26.5q14 16 24 39q6 -12 12 -27q4 -12 9.5 -31.5t5.5 -44.5 q-2 -47 -12 -65q-6 -10 -11 -14q8 -16 17 -39q4 -20 7 -52t-1 -79t-24.5 -79t-43.5 -50q-27 -23 -57 -35q16 45 16 96q0 43 -15 95t-63 104q-47 49 -92 65.5t-80 14.5q-41 -2 -79 -21q-23 -6 -48 -25q-23 -16 -48 -45.5t-48 -80.5q-35 -104 -27.5 -177t27.5 -118 q23 -53 66 -84q39 -20 75 -27q33 -4 71 4t73 45q31 33 40 75t9 77q-2 41 -12 84q25 -10 45 -31q16 -16 29.5 -44t15.5 -67q2 -41 0 -68.5t-6 -43.5q-4 -20 -11 -33q16 -25 29 -55q10 -27 16.5 -64t0.5 -82q-8 -43 -26 -72.5t-34 -46.5q-20 -23 -43 -32q10 49 8 92 q-4 37 -19.5 74.5t-58.5 58.5q-43 20 -82.5 19t-68.5 -11q-35 -10 -64 -33q-33 -29 -53 -71q-16 -37 -23.5 -94.5t15.5 -137.5t55.5 -120.5t65.5 -57.5q37 -20 80 -16q33 -4 69 2q33 4 75 18.5t93 46.5q49 31 70.5 87.5t28.5 109.5q8 63 2 133q23 -12 43 -33 q16 -16 33.5 -42.5t25.5 -61.5q8 -37 4 -71t-12 -62q-8 -33 -25 -60q4 -4 13 -12q12 -16 36 -68q12 -27 11.5 -46t-7.5 -31q-8 -16 -20 -27q-6 10 -20 18q-12 6 -34 11.5t-59 7.5q-37 0 -64.5 -2t-43.5 -6q-20 -4 -33 -9q-25 -4 -59 -8q-29 -4 -73 -5t-99 3 q-57 4 -97.5 15.5t-66.5 23.5q-31 14 -51 33q-16 -27 -45 -47q-25 -16 -65 -28.5t-99 -6.5t-88 32.5t-41 55.5q-14 35 -13 78q33 -18 64 -27q27 -8 56.5 -5t53.5 30q23 25 36.5 58.5t17.5 64.5q6 37 6 73q2 25 0 60q-4 29 -11.5 68.5t-23.5 93.5q-18 51 -36.5 74.5 t-35.5 33.5q-18 10 -34 6q10 0 24 11q10 10 25.5 32.5t31.5 67.5q16 49 23.5 100t7.5 92q0 49 -4 95q-4 31 -14 59q-10 25 -25.5 53.5t-40.5 53.5q-27 23 -57.5 25.5t-56.5 -3.5q-33 -9 -64 -25zM449 1538v60l258 51l98 63q37 25 72 37q29 10 56.5 10t39.5 -22 q10 -25 8 -43.5t-10 -30.5q-8 -14 -26 -24l-140 -101h-356z" />
<glyph unicode="&#xca;" horiz-adv-x="1280" d="M2 1257q12 43 37 78q20 29 56 53.5t91 26.5q55 0 93 -18.5t61 -40.5q27 -27 43 -62q31 33 68 60q31 23 72.5 44t90.5 27t85 7.5t61 -0.5q27 -2 47 -7q23 -2 45 -4q20 -2 43 -4t45 -4q23 -4 39 8.5t29 26.5q14 16 24 39q6 -12 12 -27q4 -12 9.5 -31.5t5.5 -44.5 q-2 -47 -12 -65q-6 -10 -11 -14q8 -16 17 -39q4 -20 7 -52t-1 -79t-24.5 -79t-43.5 -50q-27 -23 -57 -35q16 45 16 96q0 43 -15 95t-63 104q-47 49 -92 65.5t-80 14.5q-41 -2 -79 -21q-23 -6 -48 -25q-23 -16 -48 -45.5t-48 -80.5q-35 -104 -27.5 -177t27.5 -118 q23 -53 66 -84q39 -20 75 -27q33 -4 71 4t73 45q31 33 40 75t9 77q-2 41 -12 84q25 -10 45 -31q16 -16 29.5 -44t15.5 -67q2 -41 0 -68.5t-6 -43.5q-4 -20 -11 -33q16 -25 29 -55q10 -27 16.5 -64t0.5 -82q-8 -43 -26 -72.5t-34 -46.5q-20 -23 -43 -32q10 49 8 92 q-4 37 -19.5 74.5t-58.5 58.5q-43 20 -82.5 19t-68.5 -11q-35 -10 -64 -33q-33 -29 -53 -71q-16 -37 -23.5 -94.5t15.5 -137.5t55.5 -120.5t65.5 -57.5q37 -20 80 -16q33 -4 69 2q33 4 75 18.5t93 46.5q49 31 70.5 87.5t28.5 109.5q8 63 2 133q23 -12 43 -33 q16 -16 33.5 -42.5t25.5 -61.5q8 -37 4 -71t-12 -62q-8 -33 -25 -60q4 -4 13 -12q12 -16 36 -68q12 -27 11.5 -46t-7.5 -31q-8 -16 -20 -27q-6 10 -20 18q-12 6 -34 11.5t-59 7.5q-37 0 -64.5 -2t-43.5 -6q-20 -4 -33 -9q-25 -4 -59 -8q-29 -4 -73 -5t-99 3 q-57 4 -97.5 15.5t-66.5 23.5q-31 14 -51 33q-16 -27 -45 -47q-25 -16 -65 -28.5t-99 -6.5t-88 32.5t-41 55.5q-14 35 -13 78q33 -18 64 -27q27 -8 56.5 -5t53.5 30q23 25 36.5 58.5t17.5 64.5q6 37 6 73q2 25 0 60q-4 29 -11.5 68.5t-23.5 93.5q-18 51 -36.5 74.5 t-35.5 33.5q-18 10 -34 6q10 0 24 11q10 10 25.5 32.5t31.5 67.5q16 49 23.5 100t7.5 92q0 49 -4 95q-4 31 -14 59q-10 25 -25.5 53.5t-40.5 53.5q-27 23 -57.5 25.5t-56.5 -3.5q-33 -9 -64 -25zM361 1584l276 243h4l277 -243l-25 -35l-254 116l-254 -116z" />
<glyph unicode="&#xcb;" horiz-adv-x="1280" d="M2 1257q12 43 37 78q20 29 56 53.5t91 26.5q55 0 93 -18.5t61 -40.5q27 -27 43 -62q31 33 68 60q31 23 72.5 44t90.5 27t85 7.5t61 -0.5q27 -2 47 -7q23 -2 45 -4q20 -2 43 -4t45 -4q23 -4 39 8.5t29 26.5q14 16 24 39q6 -12 12 -27q4 -12 9.5 -31.5t5.5 -44.5 q-2 -47 -12 -65q-6 -10 -11 -14q8 -16 17 -39q4 -20 7 -52t-1 -79t-24.5 -79t-43.5 -50q-27 -23 -57 -35q16 45 16 96q0 43 -15 95t-63 104q-47 49 -92 65.5t-80 14.5q-41 -2 -79 -21q-23 -6 -48 -25q-23 -16 -48 -45.5t-48 -80.5q-35 -104 -27.5 -177t27.5 -118 q23 -53 66 -84q39 -20 75 -27q33 -4 71 4t73 45q31 33 40 75t9 77q-2 41 -12 84q25 -10 45 -31q16 -16 29.5 -44t15.5 -67q2 -41 0 -68.5t-6 -43.5q-4 -20 -11 -33q16 -25 29 -55q10 -27 16.5 -64t0.5 -82q-8 -43 -26 -72.5t-34 -46.5q-20 -23 -43 -32q10 49 8 92 q-4 37 -19.5 74.5t-58.5 58.5q-43 20 -82.5 19t-68.5 -11q-35 -10 -64 -33q-33 -29 -53 -71q-16 -37 -23.5 -94.5t15.5 -137.5t55.5 -120.5t65.5 -57.5q37 -20 80 -16q33 -4 69 2q33 4 75 18.5t93 46.5q49 31 70.5 87.5t28.5 109.5q8 63 2 133q23 -12 43 -33 q16 -16 33.5 -42.5t25.5 -61.5q8 -37 4 -71t-12 -62q-8 -33 -25 -60q4 -4 13 -12q12 -16 36 -68q12 -27 11.5 -46t-7.5 -31q-8 -16 -20 -27q-6 10 -20 18q-12 6 -34 11.5t-59 7.5q-37 0 -64.5 -2t-43.5 -6q-20 -4 -33 -9q-25 -4 -59 -8q-29 -4 -73 -5t-99 3 q-57 4 -97.5 15.5t-66.5 23.5q-31 14 -51 33q-16 -27 -45 -47q-25 -16 -65 -28.5t-99 -6.5t-88 32.5t-41 55.5q-14 35 -13 78q33 -18 64 -27q27 -8 56.5 -5t53.5 30q23 25 36.5 58.5t17.5 64.5q6 37 6 73q2 25 0 60q-4 29 -11.5 68.5t-23.5 93.5q-18 51 -36.5 74.5 t-35.5 33.5q-18 10 -34 6q10 0 24 11q10 10 25.5 32.5t31.5 67.5q16 49 23.5 100t7.5 92q0 49 -4 95q-4 31 -14 59q-10 25 -25.5 53.5t-40.5 53.5q-27 23 -57.5 25.5t-56.5 -3.5q-33 -9 -64 -25zM258 1682q0 47 35 82t82 35t81.5 -35t34.5 -82t-34.5 -82t-81.5 -35t-82 35 t-35 82zM602 1682q0 47 35 82t82 35t81.5 -35t34.5 -82t-34.5 -82t-81.5 -35t-82 35t-35 82z" />
<glyph unicode="&#xcc;" horiz-adv-x="727" d="M-130 1693.5q-3 18.5 9 43.5q12 23 40 22.5t56 -10.5q33 -12 72 -37l98 -63l258 -52v-59h-356l-139 100q-18 10 -27 25q-8 12 -11 30.5zM4 156q53 -31 98 -21q18 4 37 17.5t34 40t25.5 69.5t14.5 107q4 113 -14.5 181t-40.5 105q-27 43 -62 62q29 18 51 57q18 35 35 92.5 t17 155.5q0 143 -31 201.5t-68 68.5q-43 13 -96 -20q8 41 27 74q16 29 43.5 52t72.5 27t75 -3t46 -17q20 -10 31 -27q10 16 31 25q16 8 47 12t78 -6q47 -8 68.5 -26.5t31.5 -39.5q10 -23 8 -51q-49 6 -88 -16q-35 -20 -62.5 -74.5t-31.5 -169.5q-4 -76 9 -134t30 -99 q20 -49 47 -84q-29 -29 -51 -78q-18 -41 -33.5 -106.5t-11.5 -159.5q2 -66 11 -110t23.5 -70.5t31 -40t34.5 -15.5q41 -8 92 27q2 -41 -6 -74q-8 -29 -29.5 -53.5t-68.5 -28.5t-77 0t-48 12q-23 8 -33 21q-16 -18 -39 -29q-23 -10 -55.5 -13t-83.5 9t-75.5 37t-35.5 49 q-10 29 -8 64z" />
<glyph unicode="&#xcd;" horiz-adv-x="727" d="M4 156q53 -31 98 -21q18 4 37 17.5t34 40t25.5 69.5t14.5 107q4 113 -14.5 181t-40.5 105q-27 43 -62 62q29 18 51 57q18 35 35 92.5t17 155.5q0 143 -31 201.5t-68 68.5q-43 13 -96 -20q8 41 27 74q16 29 43.5 52t72.5 27t75 -3t46 -17q20 -10 31 -27q10 16 31 25 q16 8 47 12t78 -6q47 -8 68.5 -26.5t31.5 -39.5q10 -23 8 -51q-49 6 -88 -16q-35 -20 -62.5 -74.5t-31.5 -169.5q-4 -76 9 -134t30 -99q20 -49 47 -84q-29 -29 -51 -78q-18 -41 -33.5 -106.5t-11.5 -159.5q2 -66 11 -110t23.5 -70.5t31 -40t34.5 -15.5q41 -8 92 27 q2 -41 -6 -74q-8 -29 -29.5 -53.5t-68.5 -28.5t-77 0t-48 12q-23 8 -33 21q-16 -18 -39 -29q-23 -10 -55.5 -13t-83.5 9t-75.5 37t-35.5 49q-10 29 -8 64zM211 1532v60l258 51l98 63q37 25 72 37q29 10 56.5 10t39.5 -22q10 -25 8 -43.5t-10 -30.5q-8 -14 -26 -24l-140 -101 h-356z" />
<glyph unicode="&#xce;" horiz-adv-x="727" d="M4 156q53 -31 98 -21q18 4 37 17.5t34 40t25.5 69.5t14.5 107q4 113 -14.5 181t-40.5 105q-27 43 -62 62q29 18 51 57q18 35 35 92.5t17 155.5q0 143 -31 201.5t-68 68.5q-43 13 -96 -20q8 41 27 74q16 29 43.5 52t72.5 27t75 -3t46 -17q20 -10 31 -27q10 16 31 25 q16 8 47 12t78 -6q47 -8 68.5 -26.5t31.5 -39.5q10 -23 8 -51q-49 6 -88 -16q-35 -20 -62.5 -74.5t-31.5 -169.5q-4 -76 9 -134t30 -99q20 -49 47 -84q-29 -29 -51 -78q-18 -41 -33.5 -106.5t-11.5 -159.5q2 -66 11 -110t23.5 -70.5t31 -40t34.5 -15.5q41 -8 92 27 q2 -41 -6 -74q-8 -29 -29.5 -53.5t-68.5 -28.5t-77 0t-48 12q-23 8 -33 21q-16 -18 -39 -29q-23 -10 -55.5 -13t-83.5 9t-75.5 37t-35.5 49q-10 29 -8 64zM6 1584l276 243h4l277 -243l-25 -35l-254 116l-254 -116z" />
<glyph unicode="&#xcf;" horiz-adv-x="727" d="M4 156q53 -31 98 -21q18 4 37 17.5t34 40t25.5 69.5t14.5 107q4 113 -14.5 181t-40.5 105q-27 43 -62 62q29 18 51 57q18 35 35 92.5t17 155.5q0 143 -31 201.5t-68 68.5q-43 13 -96 -20q8 41 27 74q16 29 43.5 52t72.5 27t75 -3t46 -17q20 -10 31 -27q10 16 31 25 q16 8 47 12t78 -6q47 -8 68.5 -26.5t31.5 -39.5q10 -23 8 -51q-49 6 -88 -16q-35 -20 -62.5 -74.5t-31.5 -169.5q-4 -76 9 -134t30 -99q20 -49 47 -84q-29 -29 -51 -78q-18 -41 -33.5 -106.5t-11.5 -159.5q2 -66 11 -110t23.5 -70.5t31 -40t34.5 -15.5q41 -8 92 27 q2 -41 -6 -74q-8 -29 -29.5 -53.5t-68.5 -28.5t-77 0t-48 12q-23 8 -33 21q-16 -18 -39 -29q-23 -10 -55.5 -13t-83.5 9t-75.5 37t-35.5 49q-10 29 -8 64zM4 1682q0 47 35 82t82 35t81.5 -35t34.5 -82t-34.5 -82t-81.5 -35t-82 35t-35 82zM348 1682q0 47 35 82t82 35 t81.5 -35t34.5 -82t-34.5 -82t-81.5 -35t-82 35t-35 82z" />
<glyph unicode="&#xd1;" horiz-adv-x="1226" d="M4 115q51 -4 90 18q16 10 32.5 26.5t29 42t19.5 62.5t5 86q-4 98 -20.5 158.5t-34.5 95.5q-23 39 -47 58q18 4 37 38q14 29 28.5 92.5t20.5 180.5q2 125 -22.5 187.5t-55.5 86.5q-37 29 -82 25q18 31 47 55q25 23 65 41t99 23q59 4 103 -22t73 -58q33 -39 55 -90 q16 -41 31 -78q12 -35 23.5 -72t19.5 -65q6 -29 17.5 -85.5t23.5 -111.5q14 -66 31 -137q8 -39 18 -80q10 -35 23.5 -78t36.5 -84q20 -47 34.5 -72.5t24.5 -38.5q10 -14 19 -16v801q0 14 -5 33q-4 14 -10 32.5t-22 38.5q-29 37 -64 37q-18 0 -35 -6q2 33 15 57 q10 23 31.5 41.5t58.5 22.5t58.5 -1t31.5 -13q12 -8 14 -21q14 18 37 31q18 10 44 15t61 -3q35 -10 53 -30.5t28 -43.5q10 -25 13 -55q-43 8 -80 -12q-31 -16 -59.5 -65.5t-34.5 -149.5q-8 -100 2 -174t26 -121q18 -57 43 -96q-20 -37 -34 -86q-14 -41 -24.5 -99.5 t-12.5 -132.5q-2 -76 11 -132t30 -97q18 -47 43 -82q-68 -4 -129 4q-53 8 -106.5 31.5t-82.5 76.5q-31 53 -50 93.5t-30 66.5q-12 31 -16 51q-12 29 -25 66q-10 29 -23 68.5t-26 82.5l-61 216q-2 20 -8 43q-4 20 -10.5 48.5t-16.5 65.5q-10 35 -23.5 69t-25.5 60 q-14 31 -29 56l-10 -877q0 -20 6 -41q4 -16 15.5 -32.5t33.5 -26.5q20 -10 39 -8.5t31 6.5q14 6 26 16q-2 -27 -10 -49q-8 -20 -23.5 -37.5t-43.5 -28.5q-29 -10 -54.5 -9t-48.5 5q-25 6 -47 17q-12 -10 -31 -17q-16 -4 -38.5 -6t-53.5 6q-33 6 -50 23.5t-28 36.5 q-10 23 -14 47zM66 1518q2 0 11 8t38 41q37 45 51 65q8 12 12 25q8 14 23 29q12 12 31.5 26t48.5 29q27 16 62.5 16t66.5 -8q37 -8 73 -25q4 -2 15 -6q8 -4 22.5 -11t36.5 -19q41 -25 78 -37q18 -8 37 -13q16 -8 35 -8q16 0 33.5 6t33.5 27q16 20 23.5 47t9.5 49q2 27 0 56 q2 -4 10 -11q4 -4 12.5 -12t18.5 -18t16 -20.5t10 -20.5q6 -10 9 -21q8 4 18 6q8 2 19.5 3t23.5 -1q25 -6 37 -12q8 -4 12 -8l-16 -17q-16 -16 -35 -41q-10 -14 -19.5 -27t-17.5 -24q-8 -12 -18 -26q-10 -18 -27 -35q-14 -14 -36.5 -29.5t-57.5 -25.5t-66.5 -8.5t-56.5 8.5 q-29 8 -55 18q-12 4 -23 10q-10 4 -21.5 9.5t-21.5 11.5q-12 4 -31.5 13t-37.5 19l-45 23q-14 6 -31 8q-14 2 -32.5 -2t-41.5 -16t-32 -39t-13 -55q-4 -33 0 -70q-10 6 -18 14q-8 6 -15.5 12.5t-13.5 12.5q-6 4 -12 14t-11 21q-6 10 -10 24l-24 -4q-10 -2 -20.5 -2h-20.5 q-16 2 -29.5 9t-17.5 12z" />
<glyph unicode="&#xd2;" horiz-adv-x="1302" d="M0 705q25 8 47 26q20 16 41 43t35 68q8 25 16 58.5t15 66.5q8 37 12 75q29 113 86 199q25 37 58.5 72t77.5 61.5t100.5 42t123.5 13.5q68 -4 124.5 -21.5t101.5 -44.5t79.5 -60.5t59.5 -66.5q59 -82 90 -180q4 -20 12 -51q4 -27 10.5 -65t10.5 -87q4 -51 18.5 -83 t30.5 -52q20 -23 43 -35q-16 -8 -35 -22q-16 -12 -32.5 -33t-30.5 -51q-20 -47 -27 -89q-6 -23 -6 -45q-12 -129 -66 -227q-23 -43 -56.5 -83t-81.5 -70.5t-112.5 -48t-148.5 -13.5q-72 2 -129 21.5t-103.5 50t-81 69.5t-59.5 80q-59 96 -88 215q-4 25 -12 51 q-6 23 -15.5 50.5t-19.5 52.5q-10 29 -24.5 49.5t-28.5 34.5q-16 16 -35 29zM101.5 1691.5q-3.5 18.5 9.5 43.5q12 23 39.5 22.5t56.5 -10.5q33 -12 72 -37l98 -63l258 -52v-59h-356l-140 100q-18 10 -26 25q-8 12 -11.5 30.5zM338 973q0 -86 27.5 -158t74.5 -119 q-41 -47 -66.5 -115.5t-25.5 -148.5q0 -72 19.5 -133t53.5 -107.5t79 -73t96 -26.5t96 26.5t79 73t53.5 107.5t19.5 133q0 78 -24.5 145.5t-65.5 114.5q47 47 76.5 121t29.5 160q0 72 -20.5 135t-56 110.5t-83 75t-102.5 27.5q-53 0 -101 -27.5t-83 -75t-55.5 -111 t-20.5 -134.5z" />
<glyph unicode="&#xd3;" horiz-adv-x="1363" d="M0 705q25 8 47 26q20 16 41 43t35 68q8 25 16 58.5t15 66.5q8 37 12 75q29 113 86 199q25 37 58.5 72t77.5 61.5t100.5 42t123.5 13.5q68 -4 124.5 -21.5t101.5 -44.5t79.5 -60.5t59.5 -66.5q59 -82 90 -180q4 -20 12 -51q4 -27 10.5 -65t10.5 -87q4 -51 18.5 -83 t30.5 -52q20 -23 43 -35q-16 -8 -35 -22q-16 -12 -32.5 -33t-30.5 -51q-20 -47 -27 -89q-6 -23 -6 -45q-12 -129 -66 -227q-23 -43 -56.5 -83t-81.5 -70.5t-112.5 -48t-148.5 -13.5q-72 2 -129 21.5t-103.5 50t-81 69.5t-59.5 80q-59 96 -88 215q-4 25 -12 51 q-6 23 -15.5 50.5t-19.5 52.5q-10 29 -24.5 49.5t-28.5 34.5q-16 16 -35 29zM338 973q0 -86 27.5 -158t74.5 -119q-41 -47 -66.5 -115.5t-25.5 -148.5q0 -72 19.5 -133t53.5 -107.5t79 -73t96 -26.5t96 26.5t79 73t53.5 107.5t19.5 133q0 78 -24.5 145.5t-65.5 114.5 q47 47 76.5 121t29.5 160q0 72 -20.5 135t-56 110.5t-83 75t-102.5 27.5q-53 0 -101 -27.5t-83 -75t-55.5 -111t-20.5 -134.5zM596 1526v60l258 51l98 63q37 25 72 37q29 10 56.5 10t39.5 -22q10 -25 8 -43.5t-10 -30.5q-8 -14 -26 -24l-140 -101h-356z" />
<glyph unicode="&#xd4;" horiz-adv-x="1363" d="M0 705q25 8 47 26q20 16 41 43t35 68q8 25 16 58.5t15 66.5q8 37 12 75q29 113 86 199q25 37 58.5 72t77.5 61.5t100.5 42t123.5 13.5q68 -4 124.5 -21.5t101.5 -44.5t79.5 -60.5t59.5 -66.5q59 -82 90 -180q4 -20 12 -51q4 -27 10.5 -65t10.5 -87q4 -51 18.5 -83 t30.5 -52q20 -23 43 -35q-16 -8 -35 -22q-16 -12 -32.5 -33t-30.5 -51q-20 -47 -27 -89q-6 -23 -6 -45q-12 -129 -66 -227q-23 -43 -56.5 -83t-81.5 -70.5t-112.5 -48t-148.5 -13.5q-72 2 -129 21.5t-103.5 50t-81 69.5t-59.5 80q-59 96 -88 215q-4 25 -12 51 q-6 23 -15.5 50.5t-19.5 52.5q-10 29 -24.5 49.5t-28.5 34.5q-16 16 -35 29zM322 1584l276 243h4l277 -243l-25 -35l-254 116l-254 -116zM338 973q0 -86 27.5 -158t74.5 -119q-41 -47 -66.5 -115.5t-25.5 -148.5q0 -72 19.5 -133t53.5 -107.5t79 -73t96 -26.5t96 26.5t79 73 t53.5 107.5t19.5 133q0 78 -24.5 145.5t-65.5 114.5q47 47 76.5 121t29.5 160q0 72 -20.5 135t-56 110.5t-83 75t-102.5 27.5q-53 0 -101 -27.5t-83 -75t-55.5 -111t-20.5 -134.5z" />
<glyph unicode="&#xd5;" horiz-adv-x="1363" d="M0 705q25 8 47 26q20 16 41 43t35 68q8 25 16 58.5t15 66.5q8 37 12 75q29 113 86 199q25 37 58.5 72t77.5 61.5t100.5 42t123.5 13.5q68 -4 124.5 -21.5t101.5 -44.5t79.5 -60.5t59.5 -66.5q59 -82 90 -180q4 -20 12 -51q4 -27 10.5 -65t10.5 -87q4 -51 18.5 -83 t30.5 -52q20 -23 43 -35q-16 -8 -35 -22q-16 -12 -32.5 -33t-30.5 -51q-20 -47 -27 -89q-6 -23 -6 -45q-12 -129 -66 -227q-23 -43 -56.5 -83t-81.5 -70.5t-112.5 -48t-148.5 -13.5q-72 2 -129 21.5t-103.5 50t-81 69.5t-59.5 80q-59 96 -88 215q-4 25 -12 51 q-6 23 -15.5 50.5t-19.5 52.5q-10 29 -24.5 49.5t-28.5 34.5q-16 16 -35 29zM227 1592v2q29 16 61.5 61t72.5 78t101 33q57 0 151.5 -45t129.5 -45q47 0 69.5 36.5t14.5 96.5l2 2q18 -10 37.5 -32.5t23.5 -41.5h5q45 12 88 -10v-2q-29 -18 -61 -64.5t-71.5 -77t-103.5 -30.5 q-66 0 -155.5 45t-122.5 45q-47 0 -71 -37t-15 -96l-2 -2q-49 27 -62 73h-4q-47 -12 -88 11zM338 973q0 -86 27.5 -158t74.5 -119q-41 -47 -66.5 -115.5t-25.5 -148.5q0 -72 19.5 -133t53.5 -107.5t79 -73t96 -26.5t96 26.5t79 73t53.5 107.5t19.5 133q0 78 -24.5 145.5 t-65.5 114.5q47 47 76.5 121t29.5 160q0 72 -20.5 135t-56 110.5t-83 75t-102.5 27.5q-53 0 -101 -27.5t-83 -75t-55.5 -111t-20.5 -134.5z" />
<glyph unicode="&#xd6;" horiz-adv-x="1363" d="M0 705q25 8 47 26q20 16 41 43t35 68q8 25 16 58.5t15 66.5q8 37 12 75q29 113 86 199q25 37 58.5 72t77.5 61.5t100.5 42t123.5 13.5q68 -4 124.5 -21.5t101.5 -44.5t79.5 -60.5t59.5 -66.5q59 -82 90 -180q4 -20 12 -51q4 -27 10.5 -65t10.5 -87q4 -51 18.5 -83 t30.5 -52q20 -23 43 -35q-16 -8 -35 -22q-16 -12 -32.5 -33t-30.5 -51q-20 -47 -27 -89q-6 -23 -6 -45q-12 -129 -66 -227q-23 -43 -56.5 -83t-81.5 -70.5t-112.5 -48t-148.5 -13.5q-72 2 -129 21.5t-103.5 50t-81 69.5t-59.5 80q-59 96 -88 215q-4 25 -12 51 q-6 23 -15.5 50.5t-19.5 52.5q-10 29 -24.5 49.5t-28.5 34.5q-16 16 -35 29zM313 1682q0 47 35 82t82 35t81.5 -35t34.5 -82t-34.5 -82t-81.5 -35t-82 35t-35 82zM338 973q0 -86 27.5 -158t74.5 -119q-41 -47 -66.5 -115.5t-25.5 -148.5q0 -72 19.5 -133t53.5 -107.5t79 -73 t96 -26.5t96 26.5t79 73t53.5 107.5t19.5 133q0 78 -24.5 145.5t-65.5 114.5q47 47 76.5 121t29.5 160q0 72 -20.5 135t-56 110.5t-83 75t-102.5 27.5q-53 0 -101 -27.5t-83 -75t-55.5 -111t-20.5 -134.5zM657 1682q0 47 35 82t82 35t81.5 -35t34.5 -82t-34.5 -82t-81.5 -35 t-82 35t-35 82z" />
<glyph unicode="&#xd9;" horiz-adv-x="1300" d="M2 1319q8 27 27 49q16 18 43.5 35.5t70.5 21.5q41 4 65.5 -2t35.5 -12q12 -8 16 -18q14 12 35 20q16 8 41.5 12.5t60.5 -0.5q35 -4 57.5 -17t37.5 -26q14 -16 22 -32q-49 -4 -86 -35q-33 -27 -60.5 -82t-29.5 -158q-4 -104 12.5 -167.5t36.5 -98.5q23 -41 53 -61 q-31 -35 -49 -89q-16 -45 -24.5 -114.5t8.5 -167.5q16 -100 49 -154.5t68 -83.5q39 -33 86 -39q53 -2 98 19q39 16 75.5 57t53.5 119q23 123 12.5 212t-29.5 146q-23 68 -57 111q23 31 43 74q16 37 30.5 91t14.5 130q4 117 -24.5 174t-63.5 80q-41 25 -94 20q10 25 29 45 q14 16 36.5 30.5t53.5 16.5t53 -3t39 -11q18 -8 31 -16q23 18 49 30q23 10 54.5 17.5t66.5 -0.5t52 -33t25 -53q8 -33 11 -70q-47 25 -86 17q-35 -6 -67 -47.5t-42 -145.5q-10 -98 8.5 -165.5t42.5 -110.5q29 -51 68 -84q-10 -6 -21 -17q-10 -10 -20 -26.5t-19 -44.5 q-10 -29 -15 -69t-9 -81q-4 -47 -4 -96q-6 -41 -17 -84q-10 -39 -28.5 -86t-46.5 -94q-35 -57 -86.5 -87t-102.5 -45q-59 -16 -123 -18q-53 0 -106 14q-45 12 -93 38t-85 75q-37 47 -58.5 107.5t-31.5 113.5q-12 61 -15 123q0 20 -4 43q-6 37 -29 113q-12 35 -25 55.5 t-26 32.5q-14 14 -26 22q33 29 55 72q20 37 34.5 91t10.5 132q-6 125 -33.5 184.5t-56.5 81.5q-37 25 -78 19zM79 1795.5q-3 18.5 9 43.5q12 23 40 22.5t56 -10.5q33 -12 72 -37l98 -63l258 -52v-59h-356l-139 100q-18 10 -27 25q-8 12 -11 30.5z" />
<glyph unicode="&#xda;" horiz-adv-x="1300" d="M2 1319q8 27 27 49q16 18 43.5 35.5t70.5 21.5q41 4 65.5 -2t35.5 -12q12 -8 16 -18q14 12 35 20q16 8 41.5 12.5t60.5 -0.5q35 -4 57.5 -17t37.5 -26q14 -16 22 -32q-49 -4 -86 -35q-33 -27 -60.5 -82t-29.5 -158q-4 -104 12.5 -167.5t36.5 -98.5q23 -41 53 -61 q-31 -35 -49 -89q-16 -45 -24.5 -114.5t8.5 -167.5q16 -100 49 -154.5t68 -83.5q39 -33 86 -39q53 -2 98 19q39 16 75.5 57t53.5 119q23 123 12.5 212t-29.5 146q-23 68 -57 111q23 31 43 74q16 37 30.5 91t14.5 130q4 117 -24.5 174t-63.5 80q-41 25 -94 20q10 25 29 45 q14 16 36.5 30.5t53.5 16.5t53 -3t39 -11q18 -8 31 -16q23 18 49 30q23 10 54.5 17.5t66.5 -0.5t52 -33t25 -53q8 -33 11 -70q-47 25 -86 17q-35 -6 -67 -47.5t-42 -145.5q-10 -98 8.5 -165.5t42.5 -110.5q29 -51 68 -84q-10 -6 -21 -17q-10 -10 -20 -26.5t-19 -44.5 q-10 -29 -15 -69t-9 -81q-4 -47 -4 -96q-6 -41 -17 -84q-10 -39 -28.5 -86t-46.5 -94q-35 -57 -86.5 -87t-102.5 -45q-59 -16 -123 -18q-53 0 -106 14q-45 12 -93 38t-85 75q-37 47 -58.5 107.5t-31.5 113.5q-12 61 -15 123q0 20 -4 43q-6 37 -29 113q-12 35 -25 55.5 t-26 32.5q-14 14 -26 22q33 29 55 72q20 37 34.5 91t10.5 132q-6 125 -33.5 184.5t-56.5 81.5q-37 25 -78 19zM596 1536v60l258 51l98 63q37 25 72 37q29 10 56.5 10t39.5 -22q10 -25 8 -43.5t-10 -30.5q-8 -14 -26 -24l-140 -101h-356z" />
<glyph unicode="&#xdb;" horiz-adv-x="1300" d="M2 1319q8 27 27 49q16 18 43.5 35.5t70.5 21.5q41 4 65.5 -2t35.5 -12q12 -8 16 -18q14 12 35 20q16 8 41.5 12.5t60.5 -0.5q35 -4 57.5 -17t37.5 -26q14 -16 22 -32q-49 -4 -86 -35q-33 -27 -60.5 -82t-29.5 -158q-4 -104 12.5 -167.5t36.5 -98.5q23 -41 53 -61 q-31 -35 -49 -89q-16 -45 -24.5 -114.5t8.5 -167.5q16 -100 49 -154.5t68 -83.5q39 -33 86 -39q53 -2 98 19q39 16 75.5 57t53.5 119q23 123 12.5 212t-29.5 146q-23 68 -57 111q23 31 43 74q16 37 30.5 91t14.5 130q4 117 -24.5 174t-63.5 80q-41 25 -94 20q10 25 29 45 q14 16 36.5 30.5t53.5 16.5t53 -3t39 -11q18 -8 31 -16q23 18 49 30q23 10 54.5 17.5t66.5 -0.5t52 -33t25 -53q8 -33 11 -70q-47 25 -86 17q-35 -6 -67 -47.5t-42 -145.5q-10 -98 8.5 -165.5t42.5 -110.5q29 -51 68 -84q-10 -6 -21 -17q-10 -10 -20 -26.5t-19 -44.5 q-10 -29 -15 -69t-9 -81q-4 -47 -4 -96q-6 -41 -17 -84q-10 -39 -28.5 -86t-46.5 -94q-35 -57 -86.5 -87t-102.5 -45q-59 -16 -123 -18q-53 0 -106 14q-45 12 -93 38t-85 75q-37 47 -58.5 107.5t-31.5 113.5q-12 61 -15 123q0 20 -4 43q-6 37 -29 113q-12 35 -25 55.5 t-26 32.5q-14 14 -26 22q33 29 55 72q20 37 34.5 91t10.5 132q-6 125 -33.5 184.5t-56.5 81.5q-37 25 -78 19zM277 1584l276 243h4l277 -243l-25 -35l-254 116l-254 -116z" />
<glyph unicode="&#xdc;" horiz-adv-x="1300" d="M2 1319q8 27 27 49q16 18 43.5 35.5t70.5 21.5q41 4 65.5 -2t35.5 -12q12 -8 16 -18q14 12 35 20q16 8 41.5 12.5t60.5 -0.5q35 -4 57.5 -17t37.5 -26q14 -16 22 -32q-49 -4 -86 -35q-33 -27 -60.5 -82t-29.5 -158q-4 -104 12.5 -167.5t36.5 -98.5q23 -41 53 -61 q-31 -35 -49 -89q-16 -45 -24.5 -114.5t8.5 -167.5q16 -100 49 -154.5t68 -83.5q39 -33 86 -39q53 -2 98 19q39 16 75.5 57t53.5 119q23 123 12.5 212t-29.5 146q-23 68 -57 111q23 31 43 74q16 37 30.5 91t14.5 130q4 117 -24.5 174t-63.5 80q-41 25 -94 20q10 25 29 45 q14 16 36.5 30.5t53.5 16.5t53 -3t39 -11q18 -8 31 -16q23 18 49 30q23 10 54.5 17.5t66.5 -0.5t52 -33t25 -53q8 -33 11 -70q-47 25 -86 17q-35 -6 -67 -47.5t-42 -145.5q-10 -98 8.5 -165.5t42.5 -110.5q29 -51 68 -84q-10 -6 -21 -17q-10 -10 -20 -26.5t-19 -44.5 q-10 -29 -15 -69t-9 -81q-4 -47 -4 -96q-6 -41 -17 -84q-10 -39 -28.5 -86t-46.5 -94q-35 -57 -86.5 -87t-102.5 -45q-59 -16 -123 -18q-53 0 -106 14q-45 12 -93 38t-85 75q-37 47 -58.5 107.5t-31.5 113.5q-12 61 -15 123q0 20 -4 43q-6 37 -29 113q-12 35 -25 55.5 t-26 32.5q-14 14 -26 22q33 29 55 72q20 37 34.5 91t10.5 132q-6 125 -33.5 184.5t-56.5 81.5q-37 25 -78 19zM295 1682q0 47 35 82t82 35t81.5 -35t34.5 -82t-34.5 -82t-81.5 -35t-82 35t-35 82zM639 1682q0 47 35 82t82 35t81.5 -35t34.5 -82t-34.5 -82t-81.5 -35t-82 35 t-35 82z" />
<glyph unicode="&#xdd;" horiz-adv-x="1392" d="M0 1278q12 33 35 59q18 23 48 44.5t77 25.5t73.5 0t42.5 -10q18 -8 25 -21q14 12 35 23q39 20 98 26q31 2 56.5 -9t44.5 -25q23 -16 38 -39q-49 -2 -73 -35q-23 -29 -25 -94.5t45 -190.5q33 -104 62.5 -155.5t52.5 -71.5q27 -23 49 -19q12 0 33 29q16 25 38.5 81 t51.5 169q33 127 22.5 190.5t-36.5 90.5q-31 31 -80 26q8 18 26 33q16 12 41 19.5t66 0.5q39 -8 60.5 -16t31.5 -16q12 -8 16 -17q23 16 47 27q23 10 49.5 17t59.5 5q31 -4 52.5 -21.5t37.5 -39.5q16 -25 29 -57q-43 6 -88 -7q-39 -10 -86 -42.5t-94 -102.5 q-82 -117 -111 -199t-33 -135q-4 -61 19 -100q-37 -25 -66 -70q-25 -39 -44 -103.5t-17 -162.5q0 -68 10 -114t25.5 -76.5t35 -47t37.5 -22.5q45 -16 103 10q-12 -41 -33 -72q-16 -27 -46 -46t-71 -15q-43 4 -68.5 14.5t-42.5 20.5q-18 10 -26 24q-12 -18 -33 -30 q-16 -12 -45 -21.5t-70 -7.5t-65.5 20.5t-38.5 38.5q-16 23 -25 54q53 -4 93 18q35 20 62.5 70.5t29.5 156.5q0 104 -27 172t-61 109q-39 47 -91 74q25 37 29 90q4 47 -15.5 119.5t-80.5 179.5q-41 76 -92 111.5t-97 50.5q-53 16 -106 12zM668 1536v60l258 51l98 63 q37 25 72 37q29 10 56.5 10t39.5 -22q10 -25 8 -43.5t-10 -30.5q-8 -14 -26 -24l-140 -101h-356z" />
<glyph unicode="&#xe0;" horiz-adv-x="1001" d="M2 113q33 -12 61 0q25 10 50.5 48t40.5 128q16 88 14 149.5t-10 102.5q-8 47 -27 75q25 6 47 31q18 23 38 67t32 124q12 98 3 155.5t-26 85.5q-20 35 -49 47q10 23 27 43q14 16 35.5 33t54.5 23q31 6 53.5 -1t38.5 -18q18 -12 29 -30q4 16 18 26q12 10 36 17.5t64 5.5 q41 -2 66 -16.5t41 -32.5q18 -23 27 -50q-33 -23 -54 -59q-18 -33 -27.5 -84t7.5 -129q14 -78 32.5 -126t34.5 -75q18 -33 37 -45q-16 -39 -22 -92q-6 -45 -3.5 -107.5t25.5 -140.5t47.5 -110.5t47.5 -42.5q25 -10 53 2q-4 -31 -13 -54q-8 -20 -23 -36.5t-42 -20.5 q-29 -4 -49.5 0t-36.5 12q-18 8 -33 21q-12 -14 -31 -23q-16 -8 -36.5 -13t-42.5 3q-25 6 -39.5 19.5t-22.5 29.5t-12 37q27 6 49 23q18 14 32.5 39.5t10.5 72.5q-2 59 -22.5 93t-45.5 51q-29 18 -63 22q-35 -2 -64 -18q-25 -14 -45 -43t-22 -84q-4 -57 11 -88t36 -47 q23 -18 53 -25q-12 -20 -28 -39q-14 -16 -33 -28.5t-41 -14.5q-27 -4 -44.5 1t-27.5 11q-12 8 -20 19q-14 -16 -35 -25q-16 -8 -39 -12t-47 6q-27 8 -41 25.5t-23 36.5q-8 23 -12 45zM5 1453.5q-3 18.5 9 43.5q12 23 40 22.5t56 -10.5q33 -12 72 -37l98 -63l258 -52v-59 h-356l-139 100q-18 10 -27 25q-8 12 -11 30.5zM348 629q-4 -25 4 -45q6 -16 21.5 -31.5t50.5 -17.5q33 -2 45 14t16 37q4 23 -4 53q-10 61 -20 111q-10 41 -19.5 75.5t-17.5 38.5q-10 2 -22.5 -33.5t-24.5 -80.5q-14 -53 -29 -121z" />
<glyph unicode="&#xe1;" horiz-adv-x="1001" d="M2 113q33 -12 61 0q25 10 50.5 48t40.5 128q16 88 14 149.5t-10 102.5q-8 47 -27 75q25 6 47 31q18 23 38 67t32 124q12 98 3 155.5t-26 85.5q-20 35 -49 47q10 23 27 43q14 16 35.5 33t54.5 23q31 6 53.5 -1t38.5 -18q18 -12 29 -30q4 16 18 26q12 10 36 17.5t64 5.5 q41 -2 66 -16.5t41 -32.5q18 -23 27 -50q-33 -23 -54 -59q-18 -33 -27.5 -84t7.5 -129q14 -78 32.5 -126t34.5 -75q18 -33 37 -45q-16 -39 -22 -92q-6 -45 -3.5 -107.5t25.5 -140.5t47.5 -110.5t47.5 -42.5q25 -10 53 2q-4 -31 -13 -54q-8 -20 -23 -36.5t-42 -20.5 q-29 -4 -49.5 0t-36.5 12q-18 8 -33 21q-12 -14 -31 -23q-16 -8 -36.5 -13t-42.5 3q-25 6 -39.5 19.5t-22.5 29.5t-12 37q27 6 49 23q18 14 32.5 39.5t10.5 72.5q-2 59 -22.5 93t-45.5 51q-29 18 -63 22q-35 -2 -64 -18q-25 -14 -45 -43t-22 -84q-4 -57 11 -88t36 -47 q23 -18 53 -25q-12 -20 -28 -39q-14 -16 -33 -28.5t-41 -14.5q-27 -4 -44.5 1t-27.5 11q-12 8 -20 19q-14 -16 -35 -25q-16 -8 -39 -12t-47 6q-27 8 -41 25.5t-23 36.5q-8 23 -12 45zM348 629q-4 -25 4 -45q6 -16 21.5 -31.5t50.5 -17.5q33 -2 45 14t16 37q4 23 -4 53 q-10 61 -20 111q-10 41 -19.5 75.5t-17.5 38.5q-10 2 -22.5 -33.5t-24.5 -80.5q-14 -53 -29 -121zM420 1331v60l258 51l98 63q37 25 72 37q29 10 56.5 10t39.5 -22q10 -25 8 -43.5t-10 -30.5q-8 -14 -26 -24l-140 -101h-356z" />
<glyph unicode="&#xe2;" horiz-adv-x="1001" d="M2 113q33 -12 61 0q25 10 50.5 48t40.5 128q16 88 14 149.5t-10 102.5q-8 47 -27 75q25 6 47 31q18 23 38 67t32 124q12 98 3 155.5t-26 85.5q-20 35 -49 47q10 23 27 43q14 16 35.5 33t54.5 23q31 6 53.5 -1t38.5 -18q18 -12 29 -30q4 16 18 26q12 10 36 17.5t64 5.5 q41 -2 66 -16.5t41 -32.5q18 -23 27 -50q-33 -23 -54 -59q-18 -33 -27.5 -84t7.5 -129q14 -78 32.5 -126t34.5 -75q18 -33 37 -45q-16 -39 -22 -92q-6 -45 -3.5 -107.5t25.5 -140.5t47.5 -110.5t47.5 -42.5q25 -10 53 2q-4 -31 -13 -54q-8 -20 -23 -36.5t-42 -20.5 q-29 -4 -49.5 0t-36.5 12q-18 8 -33 21q-12 -14 -31 -23q-16 -8 -36.5 -13t-42.5 3q-25 6 -39.5 19.5t-22.5 29.5t-12 37q27 6 49 23q18 14 32.5 39.5t10.5 72.5q-2 59 -22.5 93t-45.5 51q-29 18 -63 22q-35 -2 -64 -18q-25 -14 -45 -43t-22 -84q-4 -57 11 -88t36 -47 q23 -18 53 -25q-12 -20 -28 -39q-14 -16 -33 -28.5t-41 -14.5q-27 -4 -44.5 1t-27.5 11q-12 8 -20 19q-14 -16 -35 -25q-16 -8 -39 -12t-47 6q-27 8 -41 25.5t-23 36.5q-8 23 -12 45zM129 1348l276 243h4l277 -243l-25 -35l-254 116l-254 -116zM348 629q-4 -25 4 -45 q6 -16 21.5 -31.5t50.5 -17.5q33 -2 45 14t16 37q4 23 -4 53q-10 61 -20 111q-10 41 -19.5 75.5t-17.5 38.5q-10 2 -22.5 -33.5t-24.5 -80.5q-14 -53 -29 -121z" />
<glyph unicode="&#xe3;" horiz-adv-x="1001" d="M2 113q33 -12 61 0q25 10 50.5 48t40.5 128q16 88 14 149.5t-10 102.5q-8 47 -27 75q25 6 47 31q18 23 38 67t32 124q12 98 3 155.5t-26 85.5q-20 35 -49 47q10 23 27 43q14 16 35.5 33t54.5 23q31 6 53.5 -1t38.5 -18q18 -12 29 -30q4 16 18 26q12 10 36 17.5t64 5.5 q41 -2 66 -16.5t41 -32.5q18 -23 27 -50q-33 -23 -54 -59q-18 -33 -27.5 -84t7.5 -129q14 -78 32.5 -126t34.5 -75q18 -33 37 -45q-16 -39 -22 -92q-6 -45 -3.5 -107.5t25.5 -140.5t47.5 -110.5t47.5 -42.5q25 -10 53 2q-4 -31 -13 -54q-8 -20 -23 -36.5t-42 -20.5 q-29 -4 -49.5 0t-36.5 12q-18 8 -33 21q-12 -14 -31 -23q-16 -8 -36.5 -13t-42.5 3q-25 6 -39.5 19.5t-22.5 29.5t-12 37q27 6 49 23q18 14 32.5 39.5t10.5 72.5q-2 59 -22.5 93t-45.5 51q-29 18 -63 22q-35 -2 -64 -18q-25 -14 -45 -43t-22 -84q-4 -57 11 -88t36 -47 q23 -18 53 -25q-12 -20 -28 -39q-14 -16 -33 -28.5t-41 -14.5q-27 -4 -44.5 1t-27.5 11q-12 8 -20 19q-14 -16 -35 -25q-16 -8 -39 -12t-47 6q-27 8 -41 25.5t-23 36.5q-8 23 -12 45zM21 1415v2q29 16 61.5 61t72.5 78t101 33q57 0 151.5 -45t129.5 -45q47 0 69.5 36.5 t14.5 96.5l2 2q18 -10 37.5 -32.5t23.5 -41.5h5q45 12 88 -10v-2q-29 -18 -61 -64.5t-71.5 -77t-103.5 -30.5q-66 0 -155.5 45t-122.5 45q-47 0 -71 -37t-15 -96l-2 -2q-49 27 -62 73h-4q-47 -12 -88 11zM348 629q-4 -25 4 -45q6 -16 21.5 -31.5t50.5 -17.5q33 -2 45 14 t16 37q4 23 -4 53q-10 61 -20 111q-10 41 -19.5 75.5t-17.5 38.5q-10 2 -22.5 -33.5t-24.5 -80.5q-14 -53 -29 -121z" />
<glyph unicode="&#xe4;" horiz-adv-x="1001" d="M2 113q33 -12 61 0q25 10 50.5 48t40.5 128q16 88 14 149.5t-10 102.5q-8 47 -27 75q25 6 47 31q18 23 38 67t32 124q12 98 3 155.5t-26 85.5q-20 35 -49 47q10 23 27 43q14 16 35.5 33t54.5 23q31 6 53.5 -1t38.5 -18q18 -12 29 -30q4 16 18 26q12 10 36 17.5t64 5.5 q41 -2 66 -16.5t41 -32.5q18 -23 27 -50q-33 -23 -54 -59q-18 -33 -27.5 -84t7.5 -129q14 -78 32.5 -126t34.5 -75q18 -33 37 -45q-16 -39 -22 -92q-6 -45 -3.5 -107.5t25.5 -140.5t47.5 -110.5t47.5 -42.5q25 -10 53 2q-4 -31 -13 -54q-8 -20 -23 -36.5t-42 -20.5 q-29 -4 -49.5 0t-36.5 12q-18 8 -33 21q-12 -14 -31 -23q-16 -8 -36.5 -13t-42.5 3q-25 6 -39.5 19.5t-22.5 29.5t-12 37q27 6 49 23q18 14 32.5 39.5t10.5 72.5q-2 59 -22.5 93t-45.5 51q-29 18 -63 22q-35 -2 -64 -18q-25 -14 -45 -43t-22 -84q-4 -57 11 -88t36 -47 q23 -18 53 -25q-12 -20 -28 -39q-14 -16 -33 -28.5t-41 -14.5q-27 -4 -44.5 1t-27.5 11q-12 8 -20 19q-14 -16 -35 -25q-16 -8 -39 -12t-47 6q-27 8 -41 25.5t-23 36.5q-8 23 -12 45zM133 1426q0 47 35 82t82 35t81.5 -35t34.5 -82t-34.5 -82t-81.5 -35t-82 35t-35 82z M348 629q-4 -25 4 -45q6 -16 21.5 -31.5t50.5 -17.5q33 -2 45 14t16 37q4 23 -4 53q-10 61 -20 111q-10 41 -19.5 75.5t-17.5 38.5q-10 2 -22.5 -33.5t-24.5 -80.5q-14 -53 -29 -121zM477 1426q0 47 35 82t82 35t81.5 -35t34.5 -82t-34.5 -82t-81.5 -35t-82 35t-35 82z" />
<glyph unicode="&#xe5;" horiz-adv-x="1001" d="M2 113q33 -12 61 0q25 10 50.5 48t40.5 128q16 88 14 149.5t-10 102.5q-8 47 -27 75q25 6 47 31q18 23 38 67t32 124q12 98 3 155.5t-26 85.5q-20 35 -49 47q10 23 27 43q14 16 35.5 33t54.5 23q31 6 53.5 -1t38.5 -18q18 -12 29 -30q4 16 18 26q12 10 36 17.5t64 5.5 q41 -2 66 -16.5t41 -32.5q18 -23 27 -50q-33 -23 -54 -59q-18 -33 -27.5 -84t7.5 -129q14 -78 32.5 -126t34.5 -75q18 -33 37 -45q-16 -39 -22 -92q-6 -45 -3.5 -107.5t25.5 -140.5t47.5 -110.5t47.5 -42.5q25 -10 53 2q-4 -31 -13 -54q-8 -20 -23 -36.5t-42 -20.5 q-29 -4 -49.5 0t-36.5 12q-18 8 -33 21q-12 -14 -31 -23q-16 -8 -36.5 -13t-42.5 3q-25 6 -39.5 19.5t-22.5 29.5t-12 37q27 6 49 23q18 14 32.5 39.5t10.5 72.5q-2 59 -22.5 93t-45.5 51q-29 18 -63 22q-35 -2 -64 -18q-25 -14 -45 -43t-22 -84q-4 -57 11 -88t36 -47 q23 -18 53 -25q-12 -20 -28 -39q-14 -16 -33 -28.5t-41 -14.5q-27 -4 -44.5 1t-27.5 11q-12 8 -20 19q-14 -16 -35 -25q-16 -8 -39 -12t-47 6q-27 8 -41 25.5t-23 36.5q-8 23 -12 45zM254 1497q0 84 49 141.5t121 57.5t121 -57.5t49 -141.5t-49 -140.5t-121 -56.5t-121 56.5 t-49 140.5zM301 1495q0 -61 36 -104t87 -43t87 43t36 104t-36 105.5t-87 44.5t-87 -44.5t-36 -105.5zM348 629q-4 -25 4 -45q6 -16 21.5 -31.5t50.5 -17.5q33 -2 45 14t16 37q4 23 -4 53q-10 61 -20 111q-10 41 -19.5 75.5t-17.5 38.5q-10 2 -22.5 -33.5t-24.5 -80.5 q-14 -53 -29 -121z" />
<glyph unicode="&#xe7;" horiz-adv-x="1208" d="M0 725v8q127 39 127 164q0 266 122 412.5t324 146.5q147 0 242.5 -74.5t138.5 -201.5q29 -86 47 -99q14 -10 35 -10q45 0 78 33l6 -4q-8 -63 -53 -104.5t-115 -41.5q-47 0 -92 37h-2q-53 -74 -129 -73q-49 0 -88 31.5t-55 80.5l6 4q29 -18 65 -18q80 4 80 98 q0 61 -43 102t-121 41q-219 0 -219 -360q0 -125 127 -164v-8q-127 -39 -127 -164q0 -360 219 -360q78 0 121 41t43 102q0 94 -80 98q-37 0 -65 -18l-6 4q16 51 55 82t92 31q72 0 125 -74h2q49 37 101 37q66 0 108.5 -43t50.5 -103l-6 -4q-33 33 -78 33q-39 0 -61 -53 q-6 -12 -17 -41l-4 -14q-43 -127 -138 -202t-243 -75q-203 0 -324.5 146.5t-121.5 412.5q0 125 -127 164z" />
<glyph unicode="&#xe8;" horiz-adv-x="1064" d="M2 76q20 0 49 8t54.5 31.5t43 67.5t17.5 116q0 55 -13.5 102.5t-34 87t-44.5 71t-49 58.5q6 2 26.5 16.5t42 51.5t39 101.5t17.5 162.5q0 57 -14.5 97t-36 66t-47 37t-50.5 15q31 18 70 39t73 21q35 0 58.5 -25.5t34.5 -48.5q47 27 113.5 50.5t135.5 23.5 q66 0 122.5 -23.5t92.5 -50.5q6 -2 15.5 -4t19.5 -2q49 0 80 40t45 87q10 -10 22.5 -39t12.5 -76q0 -37 -8 -53.5t-17 -22.5q10 -27 17.5 -61.5t7.5 -87.5q0 -76 -25.5 -129t-46.5 -80q-4 39 -24.5 101.5t-64.5 122t-112.5 103.5t-166.5 44q-33 0 -60.5 -8.5t-48 -32 t-33 -65.5t-12.5 -107q0 -113 42 -164t85 -51q4 0 21.5 9t37 27.5t35 47t15.5 67.5q0 10 -2 21.5t-9 19.5q16 -4 36 -11t35 -20.5t25.5 -35t10.5 -52.5q0 -68 -16.5 -92t-26.5 -29q8 -10 13 -29.5t5 -60.5q0 -45 -7 -73.5t-17.5 -47t-22.5 -26.5t-20 -12q2 10 2 32 q0 20 -8.5 45t-23.5 47.5t-37.5 38t-53.5 15.5q-8 0 -29.5 -7.5t-43 -31t-39 -67.5t-17.5 -115q0 -49 20.5 -83t51 -55.5t68.5 -31t75 -11.5q33 8 81 29t95 59.5t85 101t52 159.5q27 -4 51.5 -42t24.5 -128q0 -74 -11.5 -91.5t-19.5 -17.5q16 -29 25.5 -58.5t9.5 -60.5 q0 -47 -25.5 -69.5t-50.5 -26.5q-12 27 -30.5 53.5t-53.5 26.5t-65.5 -13.5t-61 -28.5t-60.5 -27.5t-62 -12.5q-55 0 -96.5 9t-69.5 20q-33 12 -58 28q-20 -23 -50 -41t-73 -18t-69.5 11t-43 24.5t-23.5 27t-7 17.5zM2 76q20 0 49 8t54.5 31.5t43 67.5t17.5 116 q0 55 -13.5 102.5t-34 87t-44.5 71t-49 58.5q6 2 26.5 16.5t42 51.5t39 101.5t17.5 162.5q0 57 -14.5 97t-36 66t-47 37t-50.5 15q31 18 70 39t73 21q35 0 58.5 -25.5t34.5 -48.5q47 27 113.5 50.5t135.5 23.5q66 0 122.5 -23.5t92.5 -50.5q6 -2 15.5 -4t19.5 -2q49 0 80 40 t45 87q10 -10 22.5 -39t12.5 -76q0 -37 -8 -53.5t-17 -22.5q10 -27 17.5 -61.5t7.5 -87.5q0 -76 -25.5 -129t-46.5 -80q-4 39 -24.5 101.5t-64.5 122t-112.5 103.5t-166.5 44q-33 0 -60.5 -8.5t-48 -32t-33 -65.5t-12.5 -107q0 -113 42 -164t85 -51q4 0 21.5 9t37 27.5 t35 47t15.5 67.5q0 10 -2 21.5t-9 19.5q16 -4 36 -11t35 -20.5t25.5 -35t10.5 -52.5q0 -68 -16.5 -92t-26.5 -29q8 -10 13 -29.5t5 -60.5q0 -45 -7 -73.5t-17.5 -47t-22.5 -26.5t-20 -12q2 10 2 32q0 20 -8.5 45t-23.5 47.5t-37.5 38t-53.5 15.5q-8 0 -29.5 -7.5t-43 -31 t-39 -67.5t-17.5 -115q0 -49 20.5 -83t51 -55.5t68.5 -31t75 -11.5q33 8 81 29t95 59.5t85 101t52 159.5q27 -4 51.5 -42t24.5 -128q0 -74 -11.5 -91.5t-19.5 -17.5q16 -29 25.5 -58.5t9.5 -60.5q0 -47 -25.5 -69.5t-50.5 -26.5q-12 27 -30.5 53.5t-53.5 26.5t-65.5 -13.5 t-61 -28.5t-60.5 -27.5t-62 -12.5q-55 0 -96.5 9t-69.5 20q-33 12 -58 28q-20 -23 -50 -41t-73 -18t-69.5 11t-43 24.5t-23.5 27t-7 17.5zM2 76q20 0 49 8t54.5 31.5t43 67.5t17.5 116q0 55 -13.5 102.5t-34 87t-44.5 71t-49 58.5q6 2 26.5 16.5t42 51.5t39 101.5 t17.5 162.5q0 57 -14.5 97t-36 66t-47 37t-50.5 15q31 18 70 39t73 21q35 0 58.5 -25.5t34.5 -48.5q47 27 113.5 50.5t135.5 23.5q66 0 122.5 -23.5t92.5 -50.5q6 -2 15.5 -4t19.5 -2q49 0 80 40t45 87q10 -10 22.5 -39t12.5 -76q0 -37 -8 -53.5t-17 -22.5 q10 -27 17.5 -61.5t7.5 -87.5q0 -76 -25.5 -129t-46.5 -80q-4 39 -24.5 101.5t-64.5 122t-112.5 103.5t-166.5 44q-33 0 -60.5 -8.5t-48 -32t-33 -65.5t-12.5 -107q0 -113 42 -164t85 -51q4 0 21.5 9t37 27.5t35 47t15.5 67.5q0 10 -2 21.5t-9 19.5q16 -4 36 -11t35 -20.5 t25.5 -35t10.5 -52.5q0 -68 -16.5 -92t-26.5 -29q8 -10 13 -29.5t5 -60.5q0 -45 -7 -73.5t-17.5 -47t-22.5 -26.5t-20 -12q2 10 2 32q0 20 -8.5 45t-23.5 47.5t-37.5 38t-53.5 15.5q-8 0 -29.5 -7.5t-43 -31t-39 -67.5t-17.5 -115q0 -49 20.5 -83t51 -55.5t68.5 -31 t75 -11.5q33 8 81 29t95 59.5t85 101t52 159.5q27 -4 51.5 -42t24.5 -128q0 -74 -11.5 -91.5t-19.5 -17.5q16 -29 25.5 -58.5t9.5 -60.5q0 -47 -25.5 -69.5t-50.5 -26.5q-12 27 -30.5 53.5t-53.5 26.5t-65.5 -13.5t-61 -28.5t-60.5 -27.5t-62 -12.5q-55 0 -96.5 9t-69.5 20 q-33 12 -58 28q-20 -23 -50 -41t-73 -18t-69.5 11t-43 24.5t-23.5 27t-7 17.5zM3 1548.5q-3 18.5 9 42.5q12 23 40 23t57 -10q33 -12 71 -37l99 -64l258 -51v-59h-357l-139 100q-18 10 -27 25q-8 12 -11 30.5z" />
<glyph unicode="&#xe9;" horiz-adv-x="1048" d="M2 76q20 0 49 8t54.5 31.5t43 67.5t17.5 116q0 55 -13.5 102.5t-34 87t-44.5 71t-49 58.5q6 2 26.5 16.5t42 51.5t39 101.5t17.5 162.5q0 57 -14.5 97t-36 66t-47 37t-50.5 15q31 18 70 39t73 21q35 0 58.5 -25.5t34.5 -48.5q47 27 113.5 50.5t135.5 23.5 q66 0 122.5 -23.5t92.5 -50.5q6 -2 15.5 -4t19.5 -2q49 0 80 40t45 87q10 -10 22.5 -39t12.5 -76q0 -37 -8 -53.5t-17 -22.5q10 -27 17.5 -61.5t7.5 -87.5q0 -76 -25.5 -129t-46.5 -80q-4 39 -24.5 101.5t-64.5 122t-112.5 103.5t-166.5 44q-33 0 -60.5 -8.5t-48 -32 t-33 -65.5t-12.5 -107q0 -113 42 -164t85 -51q4 0 21.5 9t37 27.5t35 47t15.5 67.5q0 10 -2 21.5t-9 19.5q16 -4 36 -11t35 -20.5t25.5 -35t10.5 -52.5q0 -68 -16.5 -92t-26.5 -29q8 -10 13 -29.5t5 -60.5q0 -45 -7 -73.5t-17.5 -47t-22.5 -26.5t-20 -12q2 10 2 32 q0 20 -8.5 45t-23.5 47.5t-37.5 38t-53.5 15.5q-8 0 -29.5 -7.5t-43 -31t-39 -67.5t-17.5 -115q0 -49 20.5 -83t51 -55.5t68.5 -31t75 -11.5q33 8 81 29t95 59.5t85 101t52 159.5q27 -4 51.5 -42t24.5 -128q0 -74 -11.5 -91.5t-19.5 -17.5q16 -29 25.5 -58.5t9.5 -60.5 q0 -47 -25.5 -69.5t-50.5 -26.5q-12 27 -30.5 53.5t-53.5 26.5t-65.5 -13.5t-61 -28.5t-60.5 -27.5t-62 -12.5q-55 0 -96.5 9t-69.5 20q-33 12 -58 28q-20 -23 -50 -41t-73 -18t-69.5 11t-43 24.5t-23.5 27t-7 17.5zM459 1366v59l258 52l98 63q37 25 72 37q29 10 56.5 10 t39.5 -22q10 -25 8 -43.5t-10 -30.5q-8 -14 -27 -25l-139 -100h-356z" />
<glyph unicode="&#xea;" horiz-adv-x="1705" d="M2 76q20 0 49 8t54.5 31.5t43 67.5t17.5 116q0 55 -13.5 102.5t-34 87t-44.5 71t-49 58.5q6 2 26.5 16.5t42 51.5t39 101.5t17.5 162.5q0 57 -14.5 97t-36 66t-47 37t-50.5 15q31 18 70 39t73 21q35 0 58.5 -25.5t34.5 -48.5q47 27 113.5 50.5t135.5 23.5 q66 0 122.5 -23.5t92.5 -50.5q6 -2 15.5 -4t19.5 -2q49 0 80 40t45 87q10 -10 22.5 -39t12.5 -76q0 -37 -8 -53.5t-17 -22.5q10 -27 17.5 -61.5t7.5 -87.5q0 -76 -25.5 -129t-46.5 -80q-4 39 -24.5 101.5t-64.5 122t-112.5 103.5t-166.5 44q-33 0 -60.5 -8.5t-48 -32 t-33 -65.5t-12.5 -107q0 -113 42 -164t85 -51q4 0 21.5 9t37 27.5t35 47t15.5 67.5q0 10 -2 21.5t-9 19.5q16 -4 36 -11t35 -20.5t25.5 -35t10.5 -52.5q0 -68 -16.5 -92t-26.5 -29q8 -10 13 -29.5t5 -60.5q0 -45 -7 -73.5t-17.5 -47t-22.5 -26.5t-20 -12q2 10 2 32 q0 20 -8.5 45t-23.5 47.5t-37.5 38t-53.5 15.5q-8 0 -29.5 -7.5t-43 -31t-39 -67.5t-17.5 -115q0 -49 20.5 -83t51 -55.5t68.5 -31t75 -11.5q33 8 81 29t95 59.5t85 101t52 159.5q27 -4 51.5 -42t24.5 -128q0 -74 -11.5 -91.5t-19.5 -17.5q16 -29 25.5 -58.5t9.5 -60.5 q0 -47 -25.5 -69.5t-50.5 -26.5q-12 27 -30.5 53.5t-53.5 26.5t-65.5 -13.5t-61 -28.5t-60.5 -27.5t-62 -12.5q-55 0 -96.5 9t-69.5 20q-33 12 -58 28q-20 -23 -50 -41t-73 -18t-69.5 11t-43 24.5t-23.5 27t-7 17.5zM215 1376l277 244h4l276 -244l-24 -35l-254 117 l-254 -117z" />
<glyph unicode="&#xeb;" horiz-adv-x="1705" d="M2 76q20 0 49 8t54.5 31.5t43 67.5t17.5 116q0 55 -13.5 102.5t-34 87t-44.5 71t-49 58.5q6 2 26.5 16.5t42 51.5t39 101.5t17.5 162.5q0 57 -14.5 97t-36 66t-47 37t-50.5 15q31 18 70 39t73 21q35 0 58.5 -25.5t34.5 -48.5q47 27 113.5 50.5t135.5 23.5 q66 0 122.5 -23.5t92.5 -50.5q6 -2 15.5 -4t19.5 -2q49 0 80 40t45 87q10 -10 22.5 -39t12.5 -76q0 -37 -8 -53.5t-17 -22.5q10 -27 17.5 -61.5t7.5 -87.5q0 -76 -25.5 -129t-46.5 -80q-4 39 -24.5 101.5t-64.5 122t-112.5 103.5t-166.5 44q-33 0 -60.5 -8.5t-48 -32 t-33 -65.5t-12.5 -107q0 -113 42 -164t85 -51q4 0 21.5 9t37 27.5t35 47t15.5 67.5q0 10 -2 21.5t-9 19.5q16 -4 36 -11t35 -20.5t25.5 -35t10.5 -52.5q0 -68 -16.5 -92t-26.5 -29q8 -10 13 -29.5t5 -60.5q0 -45 -7 -73.5t-17.5 -47t-22.5 -26.5t-20 -12q2 10 2 32 q0 20 -8.5 45t-23.5 47.5t-37.5 38t-53.5 15.5q-8 0 -29.5 -7.5t-43 -31t-39 -67.5t-17.5 -115q0 -49 20.5 -83t51 -55.5t68.5 -31t75 -11.5q33 8 81 29t95 59.5t85 101t52 159.5q27 -4 51.5 -42t24.5 -128q0 -74 -11.5 -91.5t-19.5 -17.5q16 -29 25.5 -58.5t9.5 -60.5 q0 -47 -25.5 -69.5t-50.5 -26.5q-12 27 -30.5 53.5t-53.5 26.5t-65.5 -13.5t-61 -28.5t-60.5 -27.5t-62 -12.5q-55 0 -96.5 9t-69.5 20q-33 12 -58 28q-20 -23 -50 -41t-73 -18t-69.5 11t-43 24.5t-23.5 27t-7 17.5zM188 1479q0 47 35 81.5t82 34.5t82 -34.5t35 -81.5 t-35 -82t-82 -35t-82 35t-35 82zM532 1479q0 47 35 81.5t82 34.5t82 -34.5t35 -81.5t-35 -82t-82 -35t-82 35t-35 82z" />
<glyph unicode="&#xec;" horiz-adv-x="657" d="M4 133q25 -6 45 -6q78 0 106.5 53t28.5 152q0 86 -18.5 156.5t-73.5 125.5q31 47 56.5 123t25.5 158q0 27 -3 64.5t-13.5 70.5t-29.5 56.5t-52 23.5q-37 0 -72 -27q4 20 14.5 46t27.5 48.5t45 37t69 14.5q37 0 61.5 -13.5t36.5 -31.5q6 12 26.5 26.5t77.5 14.5 q53 0 82 -38t41 -75q-4 2 -20 2q-10 0 -32.5 -7t-45 -28.5t-40 -59.5t-17.5 -97q0 -92 13 -164t58 -137q-31 -31 -48 -71t-25.5 -78t-9.5 -71.5t-1 -54.5q0 -41 4.5 -79t16.5 -66.5t37.5 -46t68.5 -17.5q23 0 41 8q0 -25 -4 -50t-16 -45.5t-37 -34t-68 -13.5t-67.5 11.5 t-34.5 21.5q-10 -14 -36.5 -24.5t-65.5 -10.5q-43 0 -72 12.5t-46.5 33t-24.5 43t-9 44.5z" />
<glyph unicode="&#xed;" horiz-adv-x="653" d="M4 133q25 -6 45 -6q78 0 106.5 53t28.5 152q0 86 -18.5 156.5t-73.5 125.5q31 47 56.5 123t25.5 158q0 27 -3 64.5t-13.5 70.5t-29.5 56.5t-52 23.5q-37 0 -72 -27q4 20 14.5 46t27.5 48.5t45 37t69 14.5q37 0 61.5 -13.5t36.5 -31.5q6 12 26.5 26.5t77.5 14.5 q53 0 82 -38t41 -75q-4 2 -20 2q-10 0 -32.5 -7t-45 -28.5t-40 -59.5t-17.5 -97q0 -92 13 -164t58 -137q-31 -31 -48 -71t-25.5 -78t-9.5 -71.5t-1 -54.5q0 -41 4.5 -79t16.5 -66.5t37.5 -46t68.5 -17.5q23 0 41 8q0 -25 -4 -50t-16 -45.5t-37 -34t-68 -13.5t-67.5 11.5 t-34.5 21.5q-10 -14 -36.5 -24.5t-65.5 -10.5q-43 0 -72 12.5t-46.5 33t-24.5 43t-9 44.5zM164 1376v60l258 51l98 63q37 25 72 37q29 10 56.5 10t39.5 -22q10 -25 8 -43.5t-10 -30.5q-8 -14 -26 -24l-140 -101h-356z" />
<glyph unicode="&#xee;" horiz-adv-x="653" d="M2 1373l276 243h4l277 -243l-25 -35l-254 116l-254 -116zM4 133q25 -6 45 -6q78 0 106.5 53t28.5 152q0 86 -18.5 156.5t-73.5 125.5q31 47 56.5 123t25.5 158q0 27 -3 64.5t-13.5 70.5t-29.5 56.5t-52 23.5q-37 0 -72 -27q4 20 14.5 46t27.5 48.5t45 37t69 14.5 q37 0 61.5 -13.5t36.5 -31.5q6 12 26.5 26.5t77.5 14.5q53 0 82 -38t41 -75q-4 2 -20 2q-10 0 -32.5 -7t-45 -28.5t-40 -59.5t-17.5 -97q0 -92 13 -164t58 -137q-31 -31 -48 -71t-25.5 -78t-9.5 -71.5t-1 -54.5q0 -41 4.5 -79t16.5 -66.5t37.5 -46t68.5 -17.5q23 0 41 8 q0 -25 -4 -50t-16 -45.5t-37 -34t-68 -13.5t-67.5 11.5t-34.5 21.5q-10 -14 -36.5 -24.5t-65.5 -10.5q-43 0 -72 12.5t-46.5 33t-24.5 43t-9 44.5z" />
<glyph unicode="&#xef;" horiz-adv-x="653" d="M4 133q25 -6 45 -6q78 0 106.5 53t28.5 152q0 86 -18.5 156.5t-73.5 125.5q31 47 56.5 123t25.5 158q0 27 -3 64.5t-13.5 70.5t-29.5 56.5t-52 23.5q-37 0 -72 -27q4 20 14.5 46t27.5 48.5t45 37t69 14.5q37 0 61.5 -13.5t36.5 -31.5q6 12 26.5 26.5t77.5 14.5 q53 0 82 -38t41 -75q-4 2 -20 2q-10 0 -32.5 -7t-45 -28.5t-40 -59.5t-17.5 -97q0 -92 13 -164t58 -137q-31 -31 -48 -71t-25.5 -78t-9.5 -71.5t-1 -54.5q0 -41 4.5 -79t16.5 -66.5t37.5 -46t68.5 -17.5q23 0 41 8q0 -25 -4 -50t-16 -45.5t-37 -34t-68 -13.5t-67.5 11.5 t-34.5 21.5q-10 -14 -36.5 -24.5t-65.5 -10.5q-43 0 -72 12.5t-46.5 33t-24.5 43t-9 44.5zM8 1448q0 47 35 82t82 35t81.5 -35t34.5 -82t-34.5 -82t-81.5 -35t-82 35t-35 82zM352 1448q0 47 35 82t82 35t81.5 -35t34.5 -82t-34.5 -82t-81.5 -35t-82 35t-35 82z" />
<glyph unicode="&#xf0;" horiz-adv-x="1198" d="M74 979q18 20 37 45q16 23 34.5 51.5t34.5 63.5q14 31 28.5 55.5t24.5 42.5q12 20 25 37q25 41 64 74q35 29 90 53t141 31q115 6 190.5 -40t120.5 -104q53 -68 80 -155q4 -29 12 -66q4 -31 11.5 -72t15.5 -90q4 -33 19.5 -60.5t31.5 -49.5q18 -25 39 -47q-23 -25 -41 -50 q-16 -23 -28.5 -47t-16.5 -47q-8 -47 -15 -89t-11 -75q-8 -37 -13 -71q-10 -35 -20 -68q-10 -29 -23.5 -55.5t-27.5 -42.5q-27 -33 -55.5 -55.5t-53.5 -36.5q-29 -18 -59 -29l-134 -59q-29 -12 -45 -44t-22 -65q-8 -37 -8 -82q-14 2 -29 10q-12 6 -26.5 16.5t-24.5 30.5 q-12 18 -17.5 41t-9.5 43q-4 23 -4 50q-37 20 -63 49q-23 25 -39.5 61.5t-5.5 87.5q8 51 31.5 81t49.5 46q31 18 66 25q-16 -29 -25 -58q-8 -25 -10 -54.5t15 -55.5q23 -47 52 -64.5t56 -19.5q31 -4 59 10q29 10 54 33q23 18 44 50t34 83q10 41 14 93t6 99q2 53 0 111 q-23 -25 -57 -45q-31 -16 -78 -29.5t-115 -9.5q-74 4 -126 38t-87 73q-39 45 -63 102q-4 12 -11 31q-10 31 -30 92q-12 33 -26.5 56.5t-29.5 39.5q-16 18 -30 31zM393 1137q4 -53 17.5 -86t29.5 -52q16 -23 37 -30q-20 -18 -35 -43q-12 -23 -22 -53.5t-6 -69.5t16 -63.5 t29 -41.5q19 -18 39 -28q74 -31 129 -11q25 8 46 29t38.5 58.5t25.5 95t6 141.5q-8 166 -41.5 241.5t-74.5 98.5q-47 27 -103 8q-39 -18 -69 -45q-27 -23 -46.5 -59.5t-15.5 -89.5z" />
<glyph unicode="&#xf1;" horiz-adv-x="1284" d="M4 106q53 -12 92 3q33 12 61.5 51t26.5 129q-2 88 -18 144t-35 91q-23 39 -49 60q27 14 47 51q16 31 29.5 85t11.5 146q-2 119 -27.5 173.5t-56.5 72.5q-37 23 -82 10q4 23 14 45q10 16 29 34t53 22q35 4 57.5 0t37.5 -13q16 -8 24 -22q10 8 25 16q12 6 28.5 11.5 t38.5 7.5q23 0 40.5 -7.5t29.5 -17.5q14 -10 25 -24q23 18 45 30q20 10 43.5 17.5t46.5 1.5t41 -23.5t30 -34.5q14 -20 23 -43q-43 -2 -68 -24q-23 -20 -34 -67.5t12 -137.5q23 -82 54.5 -131t59.5 -78q35 -33 70 -45q-8 -33 -12 -70q-4 -33 -2 -72.5t14 -86.5 q10 -47 26.5 -79t30.5 -52q16 -23 35 -39q12 33 21 69q6 31 9 68t-7 72q-10 33 -24.5 54t-26.5 32q-14 12 -29 18q20 23 39 63q14 35 26.5 97.5t14.5 160.5t-23.5 145.5t-58.5 65.5q-37 20 -86 15q2 29 18 51q14 20 41 35.5t76 15.5q33 -2 50.5 -8t27.5 -14t14 -21 q10 18 29 31q16 10 38.5 17t57.5 3q47 -10 70.5 -30.5t31.5 -40.5q8 -25 7 -52q-35 14 -68 5q-29 -10 -55.5 -47t-42.5 -130q-16 -92 -8 -161.5t24 -116.5q20 -55 49 -96q-14 -6 -26 -31q-10 -23 -24.5 -65t-27.5 -119q-14 -78 -2.5 -138.5t29.5 -101.5q23 -49 51 -84 q-8 -16 -24 -25q-14 -10 -36 -14t-54 2q-31 4 -53.5 13.5t-37.5 17.5q-16 8 -26 20q-12 -4 -25 -6q-10 -4 -23.5 -5t-23.5 -5q-23 -6 -49 -2q-12 2 -27 4q4 53 -4 109q-6 47 -24.5 106t-59.5 119q-41 59 -70.5 94t-52.5 55q-25 23 -43 33q10 29 15 68q4 35 2 87t-14 124 q-14 72 -34 108.5t-38 52.5q-23 20 -45 21q-16 -20 -25 -49q-8 -25 -11 -65t7 -93q10 -55 23.5 -90t25.5 -55q14 -23 31 -35q-20 -37 -35 -90q-12 -47 -20.5 -119t2.5 -172q6 -68 34.5 -92.5t61.5 -28.5q37 -4 84 14q-6 -25 -18 -47q-10 -18 -32 -34.5t-55 -20.5 q-35 -4 -59 -2t-41 6q-20 4 -33 10q-6 -6 -18 -10t-33.5 -6t-58.5 -2t-59.5 16.5t-34.5 36.5q-14 23 -21 55zM78 1343q4 0 12 8.5t37 39.5q18 20 29.5 35.5t19.5 25.5q8 12 12 23q8 12 23 26q12 10 31.5 24.5t48.5 28.5q27 16 60.5 15.5t64.5 -6.5q37 -8 73 -23q4 -2 15 -6 q8 -4 22.5 -11t36.5 -18q23 -12 42.5 -20t35.5 -15q18 -8 35 -12q16 -8 35 -8q16 0 33.5 6t33.5 25q16 18 23.5 42.5t9.5 47.5q2 25 0 51q4 -2 12 -8q6 -4 13.5 -11.5l17.5 -17.5q8 -10 14 -20.5t11 -18.5q4 -8 6 -18q8 4 18 6t21.5 3t23.5 -1q25 -6 37 -12q8 -4 12 -8 q-10 -6 -18 -15q-8 -8 -16.5 -18t-18.5 -21q-10 -12 -18 -25.5t-17 -23.5q-8 -12 -18 -24q-10 -16 -27 -33q-14 -14 -35.5 -28.5t-56.5 -22.5q-35 -10 -66.5 -9.5t-56.5 7.5q-29 8 -53 18q-12 4 -23 10q-10 4 -22 9.5t-23 9.5q-10 4 -29.5 13t-37.5 17q-23 8 -45 21 q-14 6 -31 8q-14 2 -32.5 -1t-41.5 -15q-20 -12 -28.5 -37t-12.5 -51q-4 -31 -2 -66q-10 6 -18 12q-16 8 -29 23q-6 4 -12 13t-10 20q-7 10 -11 24q-12 -2 -22 -4t-20.5 -2h-20.5q-16 2 -29.5 9t-17.5 9z" />
<glyph unicode="&#xf2;" horiz-adv-x="1189" d="M4 604q20 6 42 22.5t42.5 50.5t35.5 87t21 131q12 51 38 109.5t69 108.5t107.5 83t152.5 33q111 0 185.5 -41t121.5 -98.5t73 -120t36 -107.5q4 -23 7 -54.5t9 -74.5q8 -70 31.5 -102.5t48.5 -42.5q-35 -14 -65.5 -59.5t-47.5 -147.5q-4 -59 -23.5 -127t-61.5 -124 t-111.5 -93t-173.5 -37q-94 0 -161 27.5t-113 71.5t-75.5 100.5t-49 113t-34 107.5t-28.5 88q-12 39 -36 62.5t-40 33.5zM85 1509.5q-3 18.5 9 42.5q12 23 40 23t56 -10q33 -12 72 -37l98 -64l258 -51v-59h-356l-139 100q-18 10 -27 25q-8 12 -11 30.5zM293 836 q0 -72 23.5 -134.5t64.5 -103.5q-35 -41 -57.5 -100.5t-22.5 -126.5q0 -61 16.5 -114.5t46 -93.5t68.5 -62.5t82 -22.5t82 22.5t68.5 62.5t46 93.5t16.5 114.5q0 68 -21.5 125t-56.5 98q41 41 65.5 104.5t24.5 137.5q0 61 -17 116.5t-47 95t-71 63.5t-88 24t-87 -24 t-70.5 -63.5t-48 -95t-17.5 -116.5z" />
<glyph unicode="&#xf3;" d="M4 604q20 6 42 22.5t42.5 50.5t35.5 87t21 131q12 51 38 109.5t69 108.5t107.5 83t152.5 33q111 0 185.5 -41t121.5 -98.5t73 -120t36 -107.5q4 -23 7 -54.5t9 -74.5q8 -70 31.5 -102.5t48.5 -42.5q-35 -14 -65.5 -59.5t-47.5 -147.5q-4 -59 -23.5 -127t-61.5 -124 t-111.5 -93t-173.5 -37q-94 0 -161 27.5t-113 71.5t-75.5 100.5t-49 113t-34 107.5t-28.5 88q-12 39 -36 62.5t-40 33.5zM293 836q0 -72 23.5 -134.5t64.5 -103.5q-35 -41 -57.5 -100.5t-22.5 -126.5q0 -61 16.5 -114.5t46 -93.5t68.5 -62.5t82 -22.5t82 22.5t68.5 62.5 t46 93.5t16.5 114.5q0 68 -21.5 125t-56.5 98q41 41 65.5 104.5t24.5 137.5q0 61 -17 116.5t-47 95t-71 63.5t-88 24t-87 -24t-70.5 -63.5t-48 -95t-17.5 -116.5zM498 1327v60l258 51l98 63q37 25 72 37q29 10 56.5 10t39.5 -22q10 -25 8 -43.5t-10 -30.5q-8 -14 -26 -24 l-140 -101h-356z" />
<glyph unicode="&#xf4;" d="M4 604q20 6 42 22.5t42.5 50.5t35.5 87t21 131q12 51 38 109.5t69 108.5t107.5 83t152.5 33q111 0 185.5 -41t121.5 -98.5t73 -120t36 -107.5q4 -23 7 -54.5t9 -74.5q8 -70 31.5 -102.5t48.5 -42.5q-35 -14 -65.5 -59.5t-47.5 -147.5q-4 -59 -23.5 -127t-61.5 -124 t-111.5 -93t-173.5 -37q-94 0 -161 27.5t-113 71.5t-75.5 100.5t-49 113t-34 107.5t-28.5 88q-12 39 -36 62.5t-40 33.5zM246 1377l276 243h4l277 -243l-25 -35l-254 116l-254 -116zM293 836q0 -72 23.5 -134.5t64.5 -103.5q-35 -41 -57.5 -100.5t-22.5 -126.5 q0 -61 16.5 -114.5t46 -93.5t68.5 -62.5t82 -22.5t82 22.5t68.5 62.5t46 93.5t16.5 114.5q0 68 -21.5 125t-56.5 98q41 41 65.5 104.5t24.5 137.5q0 61 -17 116.5t-47 95t-71 63.5t-88 24t-87 -24t-70.5 -63.5t-48 -95t-17.5 -116.5z" />
<glyph unicode="&#xf5;" d="M4 604q20 6 42 22.5t42.5 50.5t35.5 87t21 131q12 51 38 109.5t69 108.5t107.5 83t152.5 33q111 0 185.5 -41t121.5 -98.5t73 -120t36 -107.5q4 -23 7 -54.5t9 -74.5q8 -70 31.5 -102.5t48.5 -42.5q-35 -14 -65.5 -59.5t-47.5 -147.5q-4 -59 -23.5 -127t-61.5 -124 t-111.5 -93t-173.5 -37q-94 0 -161 27.5t-113 71.5t-75.5 100.5t-49 113t-34 107.5t-28.5 88q-12 39 -36 62.5t-40 33.5zM119 1350v2q29 16 61.5 61t72.5 78t101 33q57 0 151.5 -45t129.5 -45q47 0 69.5 36.5t14.5 96.5l2 2q18 -10 37.5 -32.5t23.5 -41.5h5q45 12 88 -10v-2 q-29 -18 -61 -64.5t-71.5 -77t-103.5 -30.5q-66 0 -155.5 45t-122.5 45q-47 0 -71 -37t-15 -96l-2 -2q-49 27 -62 73h-4q-47 -12 -88 11zM293 836q0 -72 23.5 -134.5t64.5 -103.5q-35 -41 -57.5 -100.5t-22.5 -126.5q0 -61 16.5 -114.5t46 -93.5t68.5 -62.5t82 -22.5 t82 22.5t68.5 62.5t46 93.5t16.5 114.5q0 68 -21.5 125t-56.5 98q41 41 65.5 104.5t24.5 137.5q0 61 -17 116.5t-47 95t-71 63.5t-88 24t-87 -24t-70.5 -63.5t-48 -95t-17.5 -116.5z" />
<glyph unicode="&#xf6;" d="M4 604q20 6 42 22.5t42.5 50.5t35.5 87t21 131q12 51 38 109.5t69 108.5t107.5 83t152.5 33q111 0 185.5 -41t121.5 -98.5t73 -120t36 -107.5q4 -23 7 -54.5t9 -74.5q8 -70 31.5 -102.5t48.5 -42.5q-35 -14 -65.5 -59.5t-47.5 -147.5q-4 -59 -23.5 -127t-61.5 -124 t-111.5 -93t-173.5 -37q-94 0 -161 27.5t-113 71.5t-75.5 100.5t-49 113t-34 107.5t-28.5 88q-12 39 -36 62.5t-40 33.5zM223 1465q0 47 35 82t82 35t81.5 -35t34.5 -82t-34.5 -82t-81.5 -35t-82 35t-35 82zM293 836q0 -72 23.5 -134.5t64.5 -103.5q-35 -41 -57.5 -100.5 t-22.5 -126.5q0 -61 16.5 -114.5t46 -93.5t68.5 -62.5t82 -22.5t82 22.5t68.5 62.5t46 93.5t16.5 114.5q0 68 -21.5 125t-56.5 98q41 41 65.5 104.5t24.5 137.5q0 61 -17 116.5t-47 95t-71 63.5t-88 24t-87 -24t-70.5 -63.5t-48 -95t-17.5 -116.5zM567 1465q0 47 35 82 t82 35t81.5 -35t34.5 -82t-34.5 -82t-81.5 -35t-82 35t-35 82z" />
<glyph unicode="&#xf7;" horiz-adv-x="1292" d="M6 586q0 66 57 119v4q-57 53 -57 118l4 2q69 -34 221 -34h666q68 0 123 8t76 16l22 10l4 -2q0 -66 -57 -118v-4q57 -53 57 -119l-4 -2q-70 35 -221 34h-666q-68 0 -123 -8t-77 -16l-21 -10zM406 337.5q0 65.5 46 112t111.5 46.5t112.5 -46.5t47 -112t-47 -112.5 t-112.5 -47t-112.5 47q-45 47 -45 112.5zM406 1075.5q0 65.5 46 112.5t111.5 47t112.5 -47t47 -112.5t-47 -111.5t-112.5 -46t-112.5 45q-45 47 -45 112.5z" />
<glyph unicode="&#xf8;" d="M4 604q20 6 42 22.5t42.5 50.5t35.5 87t21 131q12 51 38 109.5t69 108.5t107.5 83t152.5 33q111 0 185.5 -41t121.5 -98.5t73 -120t36 -107.5q4 -23 7 -54.5t9 -74.5q8 -70 31.5 -102.5t48.5 -42.5q-35 -14 -65.5 -59.5t-47.5 -147.5q-4 -59 -23.5 -127t-61.5 -124 t-111.5 -93t-173.5 -37q-94 0 -161 27.5t-113 71.5t-75.5 100.5t-49 113t-34 107.5t-28.5 88q-12 39 -36 62.5t-40 33.5zM29 4q80 88 164 221l623 983q37 59 65.5 114.5t38.5 82.5l10 25l2 4q20 0 42 -17.5t32 -40.5h4q53 57 146 58l2 -4q-80 -88 -164 -222l-623 -983 q-37 -59 -65.5 -114.5t-38.5 -81.5l-11 -25l-2 -4q-20 0 -41.5 17.5t-31.5 39.5h-4q-53 -57 -146 -57zM293 836q0 -72 23.5 -134.5t64.5 -103.5q-35 -41 -57.5 -100.5t-22.5 -126.5q0 -61 16.5 -114.5t46 -93.5t68.5 -62.5t82 -22.5t82 22.5t68.5 62.5t46 93.5t16.5 114.5 q0 68 -21.5 125t-56.5 98q41 41 65.5 104.5t24.5 137.5q0 61 -17 116.5t-47 95t-71 63.5t-88 24t-87 -24t-70.5 -63.5t-48 -95t-17.5 -116.5z" />
<glyph unicode="&#xf9;" d="M2 1130q8 23 25 44q14 16 38.5 29.5t63.5 17.5q37 4 58.5 -1.5t31.5 -11.5q12 -8 14 -16q12 10 31 18q16 6 39 10.5t55 0.5q31 -4 51.5 -15.5t32.5 -21.5q14 -12 21 -29q-43 -6 -78 -31q-29 -23 -54.5 -69.5t-27.5 -132.5q-2 -90 12.5 -144.5t32.5 -85.5q20 -37 47 -51 q-27 -31 -43 -76q-14 -39 -21 -98t7 -143q14 -86 44 -133.5t60 -69.5q37 -27 76 -35q47 0 88 16q35 14 69 48t48 102q18 106 10 182t-24 125q-20 57 -54 96q20 25 39 62q16 31 28.5 78t12.5 112q2 100 -23.5 150.5t-56.5 68.5q-37 23 -84 17q8 23 25 39q12 14 32.5 25.5 t49.5 13.5t48 -3.5t34 -9.5l28 -14q20 16 46 27q20 10 47.5 15t60.5 -1q31 -6 46.5 -27.5t23.5 -44.5q8 -27 8 -59q-41 23 -78 14q-31 -6 -58.5 -41t-37.5 -127q-8 -84 7 -141t38 -94q25 -43 61 -72q-10 -6 -18 -14q-8 -10 -17.5 -24.5t-17.5 -37.5q-10 -23 -14 -58.5 t-8 -70.5q-4 -39 -5 -82q-4 -37 -14 -73q-10 -33 -25.5 -73t-41.5 -81q-31 -49 -78 -74.5t-92 -38.5q-53 -14 -109 -14q-47 0 -94 12q-41 10 -85 33t-77 64q-35 41 -52.5 91t-27.5 95q-10 53 -14 106q0 14 -4 37q-6 37 -25 99q-10 29 -22.5 47t-22.5 28q-12 12 -25 19 q27 25 50 61q18 31 31.5 79t9.5 114q-6 106 -30 158.5t-52 70.5q-33 22 -70 14zM67 1509.5q-3 18.5 9 43.5q12 23 40 22.5t56 -10.5q33 -12 72 -37l98 -63l258 -52v-59h-356l-139 100q-18 10 -27 25q-8 12 -11 30.5z" />
<glyph unicode="&#xfa;" d="M2 1130q8 23 25 44q14 16 38.5 29.5t63.5 17.5q37 4 58.5 -1.5t31.5 -11.5q12 -8 14 -16q12 10 31 18q16 6 39 10.5t55 0.5q31 -4 51.5 -15.5t32.5 -21.5q14 -12 21 -29q-43 -6 -78 -31q-29 -23 -54.5 -69.5t-27.5 -132.5q-2 -90 12.5 -144.5t32.5 -85.5q20 -37 47 -51 q-27 -31 -43 -76q-14 -39 -21 -98t7 -143q14 -86 44 -133.5t60 -69.5q37 -27 76 -35q47 0 88 16q35 14 69 48t48 102q18 106 10 182t-24 125q-20 57 -54 96q20 25 39 62q16 31 28.5 78t12.5 112q2 100 -23.5 150.5t-56.5 68.5q-37 23 -84 17q8 23 25 39q12 14 32.5 25.5 t49.5 13.5t48 -3.5t34 -9.5l28 -14q20 16 46 27q20 10 47.5 15t60.5 -1q31 -6 46.5 -27.5t23.5 -44.5q8 -27 8 -59q-41 23 -78 14q-31 -6 -58.5 -41t-37.5 -127q-8 -84 7 -141t38 -94q25 -43 61 -72q-10 -6 -18 -14q-8 -10 -17.5 -24.5t-17.5 -37.5q-10 -23 -14 -58.5 t-8 -70.5q-4 -39 -5 -82q-4 -37 -14 -73q-10 -33 -25.5 -73t-41.5 -81q-31 -49 -78 -74.5t-92 -38.5q-53 -14 -109 -14q-47 0 -94 12q-41 10 -85 33t-77 64q-35 41 -52.5 91t-27.5 95q-10 53 -14 106q0 14 -4 37q-6 37 -25 99q-10 29 -22.5 47t-22.5 28q-12 12 -25 19 q27 25 50 61q18 31 31.5 79t9.5 114q-6 106 -30 158.5t-52 70.5q-33 22 -70 14zM524 1333v60l258 51l98 63q37 25 72 37q29 10 56.5 10t39.5 -22q10 -25 8 -43.5t-10 -30.5q-8 -14 -26 -24l-140 -101h-356z" />
<glyph unicode="&#xfb;" d="M2 1130q8 23 25 44q14 16 38.5 29.5t63.5 17.5q37 4 58.5 -1.5t31.5 -11.5q12 -8 14 -16q12 10 31 18q16 6 39 10.5t55 0.5q31 -4 51.5 -15.5t32.5 -21.5q14 -12 21 -29q-43 -6 -78 -31q-29 -23 -54.5 -69.5t-27.5 -132.5q-2 -90 12.5 -144.5t32.5 -85.5q20 -37 47 -51 q-27 -31 -43 -76q-14 -39 -21 -98t7 -143q14 -86 44 -133.5t60 -69.5q37 -27 76 -35q47 0 88 16q35 14 69 48t48 102q18 106 10 182t-24 125q-20 57 -54 96q20 25 39 62q16 31 28.5 78t12.5 112q2 100 -23.5 150.5t-56.5 68.5q-37 23 -84 17q8 23 25 39q12 14 32.5 25.5 t49.5 13.5t48 -3.5t34 -9.5l28 -14q20 16 46 27q20 10 47.5 15t60.5 -1q31 -6 46.5 -27.5t23.5 -44.5q8 -27 8 -59q-41 23 -78 14q-31 -6 -58.5 -41t-37.5 -127q-8 -84 7 -141t38 -94q25 -43 61 -72q-10 -6 -18 -14q-8 -10 -17.5 -24.5t-17.5 -37.5q-10 -23 -14 -58.5 t-8 -70.5q-4 -39 -5 -82q-4 -37 -14 -73q-10 -33 -25.5 -73t-41.5 -81q-31 -49 -78 -74.5t-92 -38.5q-53 -14 -109 -14q-47 0 -94 12q-41 10 -85 33t-77 64q-35 41 -52.5 91t-27.5 95q-10 53 -14 106q0 14 -4 37q-6 37 -25 99q-10 29 -22.5 47t-22.5 28q-12 12 -25 19 q27 25 50 61q18 31 31.5 79t9.5 114q-6 106 -30 158.5t-52 70.5q-33 22 -70 14zM221 1375l276 243h4l277 -243l-25 -35l-254 116l-254 -116z" />
<glyph unicode="&#xfc;" d="M2 1130q8 23 25 44q14 16 38.5 29.5t63.5 17.5q37 4 58.5 -1.5t31.5 -11.5q12 -8 14 -16q12 10 31 18q16 6 39 10.5t55 0.5q31 -4 51.5 -15.5t32.5 -21.5q14 -12 21 -29q-43 -6 -78 -31q-29 -23 -54.5 -69.5t-27.5 -132.5q-2 -90 12.5 -144.5t32.5 -85.5q20 -37 47 -51 q-27 -31 -43 -76q-14 -39 -21 -98t7 -143q14 -86 44 -133.5t60 -69.5q37 -27 76 -35q47 0 88 16q35 14 69 48t48 102q18 106 10 182t-24 125q-20 57 -54 96q20 25 39 62q16 31 28.5 78t12.5 112q2 100 -23.5 150.5t-56.5 68.5q-37 23 -84 17q8 23 25 39q12 14 32.5 25.5 t49.5 13.5t48 -3.5t34 -9.5l28 -14q20 16 46 27q20 10 47.5 15t60.5 -1q31 -6 46.5 -27.5t23.5 -44.5q8 -27 8 -59q-41 23 -78 14q-31 -6 -58.5 -41t-37.5 -127q-8 -84 7 -141t38 -94q25 -43 61 -72q-10 -6 -18 -14q-8 -10 -17.5 -24.5t-17.5 -37.5q-10 -23 -14 -58.5 t-8 -70.5q-4 -39 -5 -82q-4 -37 -14 -73q-10 -33 -25.5 -73t-41.5 -81q-31 -49 -78 -74.5t-92 -38.5q-53 -14 -109 -14q-47 0 -94 12q-41 10 -85 33t-77 64q-35 41 -52.5 91t-27.5 95q-10 53 -14 106q0 14 -4 37q-6 37 -25 99q-10 29 -22.5 47t-22.5 28q-12 12 -25 19 q27 25 50 61q18 31 31.5 79t9.5 114q-6 106 -30 158.5t-52 70.5q-33 22 -70 14zM232 1462q0 47 35 82t82 35t81.5 -35t34.5 -82t-34.5 -82t-81.5 -35t-82 35t-35 82zM576 1462q0 47 35 82t82 35t81.5 -35t34.5 -82t-34.5 -82t-81.5 -35t-82 35t-35 82z" />
<glyph unicode="&#xfd;" d="M0 1100q10 29 29 51q16 20 40.5 36.5t63.5 20.5t61.5 1t34.5 -9q14 -8 21 -18q12 12 31 20q14 8 34.5 14.5t46.5 8.5q27 2 47.5 -8.5t36.5 -22.5q18 -14 31 -33q-39 0 -61 -28q-18 -25 -20.5 -82.5t38.5 -163.5q27 -92 51.5 -135t42.5 -60q23 -20 41 -16q12 0 29 24 q14 23 32.5 70t41.5 145q12 55 16 95.5t1 70t-11 48t-19 28.5q-25 25 -65 23q8 16 22 28q12 10 33 16.5t56 0.5q33 -6 50 -14.5t27 -14.5q10 -8 15 -14q16 12 39 22q16 8 39.5 15.5t50.5 5.5q25 -2 43 -17.5t30 -33.5q14 -23 25 -50q-35 4 -72 -6q-33 -10 -72.5 -38.5 t-78.5 -88.5q-70 -102 -93.5 -171.5t-27.5 -114.5q-4 -53 16 -87q-31 -23 -53 -61q-20 -35 -37.5 -89t-15.5 -138q2 -115 29.5 -164t60.5 -60q37 -14 86 9q-10 -35 -27 -62q-16 -23 -39.5 -40t-58.5 -13t-57.5 11t-34.5 18q-14 10 -23 22q-10 -16 -26 -26q-14 -10 -37 -18.5 t-57 -6.5q-35 2 -55.5 18.5t-33.5 32.5q-14 20 -20 45q41 -4 76 17q29 16 52.5 59t25.5 135q0 92 -22.5 150.5t-51.5 93.5q-33 41 -74 63q18 31 23 78q2 41 -12.5 102.5t-67.5 153.5q-35 66 -78 97.5t-80 44.5q-43 14 -88 10zM559 1352v60l258 51l98 63q37 25 72 37 q29 10 56.5 10t39.5 -22q10 -25 8 -43.5t-10 -30.5q-8 -14 -26 -24l-140 -101h-356z" />
<glyph unicode="&#xff;" d="M0 1100q10 29 29 51q16 20 40.5 36.5t63.5 20.5t61.5 1t34.5 -9q14 -8 21 -18q12 12 31 20q14 8 34.5 14.5t46.5 8.5q27 2 47.5 -8.5t36.5 -22.5q18 -14 31 -33q-39 0 -61 -28q-18 -25 -20.5 -82.5t38.5 -163.5q27 -92 51.5 -135t42.5 -60q23 -20 41 -16q12 0 29 24 q14 23 32.5 70t41.5 145q12 55 16 95.5t1 70t-11 48t-19 28.5q-25 25 -65 23q8 16 22 28q12 10 33 16.5t56 0.5q33 -6 50 -14.5t27 -14.5q10 -8 15 -14q16 12 39 22q16 8 39.5 15.5t50.5 5.5q25 -2 43 -17.5t30 -33.5q14 -23 25 -50q-35 4 -72 -6q-33 -10 -72.5 -38.5 t-78.5 -88.5q-70 -102 -93.5 -171.5t-27.5 -114.5q-4 -53 16 -87q-31 -23 -53 -61q-20 -35 -37.5 -89t-15.5 -138q2 -115 29.5 -164t60.5 -60q37 -14 86 9q-10 -35 -27 -62q-16 -23 -39.5 -40t-58.5 -13t-57.5 11t-34.5 18q-14 10 -23 22q-10 -16 -26 -26q-14 -10 -37 -18.5 t-57 -6.5q-35 2 -55.5 18.5t-33.5 32.5q-14 20 -20 45q41 -4 76 17q29 16 52.5 59t25.5 135q0 92 -22.5 150.5t-51.5 93.5q-33 41 -74 63q18 31 23 78q2 41 -12.5 102.5t-67.5 153.5q-35 66 -78 97.5t-80 44.5q-43 14 -88 10zM229 1460q0 47 35 82t82 35t81.5 -35t34.5 -82 t-34.5 -82t-81.5 -35t-82 35t-35 82zM573 1460q0 47 35 82t82 35t81.5 -35t34.5 -82t-34.5 -82t-81.5 -35t-82 35t-35 82z" />
<glyph unicode="&#x152;" horiz-adv-x="3411" d="M41 702v9q127 39 127 163q0 266 121.5 413t324.5 147q186 0 306 -125q18 25 36 43q70 66 189 65q72 0 188.5 -26.5t161.5 -26.5q82 0 82 66q0 12 -6 34l6 4q39 -16 68.5 -53t29.5 -76q0 -72 -55 -104v-2q20 -37 20 -82q0 -55 -45 -91t-102 -36l-2 8q31 31 31 76 q0 57 -69 94t-187 37q-117 0 -159 -43t-42 -141v-113q0 -143 127 -143q55 0 86 28.5t31 71.5q0 45 -27 76l4 6q55 -10 94 -52t39 -98q0 -78 -55 -122v-2q55 -45 55 -121q0 -55 -38 -97.5t-95 -56.5l-4 6q27 31 27 76q0 43 -31 71.5t-86 28.5q-127 0 -127 -143v-113 q0 -96 45 -140t166 -44t193.5 37t72.5 94q0 45 -31 76l2 8q57 0 102.5 -36t45.5 -91q0 -45 -21 -82v-2q55 -33 56 -104q0 -39 -30 -76t-69 -53l-6 4q6 23 6 35q0 66 -81 65q-47 0 -167 -26.5t-194 -26.5q-129 0 -199 65q-18 16 -36 43q-119 -125 -306 -124 q-203 0 -324.5 146t-121.5 413q0 125 -127 163zM395 539q0 -360 219.5 -360t219.5 360q0 125 -127 163v9q127 39 127 163q0 360 -219.5 360.5t-219.5 -360.5q0 -125 127 -163v-9q-127 -39 -127 -163z" />
<glyph unicode="&#x153;" horiz-adv-x="3411" d="M31 498v8q119 37 119 153q0 160 99 262.5t253 102.5q156 0 256 -106q96 106 256 106q154 0 253 -102.5t99 -262.5q0 -119 119 -153v-8q-49 -31 -109 -31q-72 0 -125 55h-4q-25 -37 -84 -70.5t-153 -33.5q-68 0 -148 18v-112q0 -170 174 -170q66 0 111 33.5t45 86.5 q0 68 -35 109v6q59 0 106.5 -41t47.5 -102q0 -31 -19 -68v-2q59 -27 60 -102q0 -41 -23.5 -80t-56.5 -53l-6 2q4 20 4 24q0 57 -58 58q-25 0 -93 -16.5t-128 -16.5q-143 0 -235 92q-98 -104 -254 -104q-154 0 -253 102t-99 262q0 117 -119 154zM342 344q0 -92 43 -143 t117 -51q72 0 113.5 46t46.5 132v16q0 117 -119 154v8q119 37 119 153v15q-4 86 -46.5 133t-113.5 47q-74 0 -117 -51t-43 -144q0 -119 119 -153v-8q-119 -35 -119 -154zM862 582q82 -20 129 -21q96 0 139.5 42t43.5 104q0 63 -44.5 105t-115.5 42q-68 0 -110 -48t-42 -120 v-104z" />
<glyph unicode="&#x178;" horiz-adv-x="1392" d="M0 1278q12 33 35 59q18 23 48 44.5t77 25.5t73.5 0t42.5 -10q18 -8 25 -21q14 12 35 23q39 20 98 26q31 2 56.5 -9t44.5 -25q23 -16 38 -39q-49 -2 -73 -35q-23 -29 -25 -94.5t45 -190.5q33 -104 62.5 -155.5t52.5 -71.5q27 -23 49 -19q12 0 33 29q16 25 38.5 81 t51.5 169q33 127 22.5 190.5t-36.5 90.5q-31 31 -80 26q8 18 26 33q16 12 41 19.5t66 0.5q39 -8 60.5 -16t31.5 -16q12 -8 16 -17q23 16 47 27q23 10 49.5 17t59.5 5q31 -4 52.5 -21.5t37.5 -39.5q16 -25 29 -57q-43 6 -88 -7q-39 -10 -86 -42.5t-94 -102.5 q-82 -117 -111 -199t-33 -135q-4 -61 19 -100q-37 -25 -66 -70q-25 -39 -44 -103.5t-17 -162.5q0 -68 10 -114t25.5 -76.5t35 -47t37.5 -22.5q45 -16 103 10q-12 -41 -33 -72q-16 -27 -46 -46t-71 -15q-43 4 -68.5 14.5t-42.5 20.5q-18 10 -26 24q-12 -18 -33 -30 q-16 -12 -45 -21.5t-70 -7.5t-65.5 20.5t-38.5 38.5q-16 23 -25 54q53 -4 93 18q35 20 62.5 70.5t29.5 156.5q0 104 -27 172t-61 109q-39 47 -91 74q25 37 29 90q4 47 -15.5 119.5t-80.5 179.5q-41 76 -92 111.5t-97 50.5q-53 16 -106 12zM375 1682q0 47 35 82t82 35 t81.5 -35t34.5 -82t-34.5 -82t-81.5 -35t-82 35t-35 82zM719 1682q0 47 35 82t82 35t81.5 -35t34.5 -82t-34.5 -82t-81.5 -35t-82 35t-35 82z" />
<glyph unicode="&#x2c6;" horiz-adv-x="1705" d="M82 1174l276 243h4l277 -243l-25 -35l-254 116l-254 -116z" />
<glyph unicode="&#x2dc;" horiz-adv-x="1705" d="M82 1182v2q29 16 61.5 61t72.5 78t101 33q57 0 151.5 -45t129.5 -45q47 0 69.5 36.5t14.5 96.5l2 2q18 -10 37.5 -32.5t23.5 -41.5h5q45 12 88 -10v-2q-29 -18 -61 -64.5t-71.5 -77t-103.5 -30.5q-66 0 -155.5 45t-122.5 45q-47 0 -71 -37t-15 -96l-2 -2q-49 27 -62 73 h-4q-47 -12 -88 11z" />
<glyph unicode="&#x2000;" horiz-adv-x="940" />
<glyph unicode="&#x2001;" horiz-adv-x="1880" />
<glyph unicode="&#x2002;" horiz-adv-x="940" />
<glyph unicode="&#x2003;" horiz-adv-x="1880" />
<glyph unicode="&#x2004;" horiz-adv-x="626" />
<glyph unicode="&#x2005;" horiz-adv-x="470" />
<glyph unicode="&#x2006;" horiz-adv-x="313" />
<glyph unicode="&#x2007;" horiz-adv-x="313" />
<glyph unicode="&#x2008;" horiz-adv-x="235" />
<glyph unicode="&#x2009;" horiz-adv-x="376" />
<glyph unicode="&#x200a;" horiz-adv-x="104" />
<glyph unicode="&#x2010;" horiz-adv-x="667" d="M4 526q0 74 57 127v4q-57 53 -57 127l4 2q70 -35 221 -34h39q68 0 123 9t76 17l22 8l5 -2q0 -74 -58 -127v-4q57 -53 58 -127l-5 -2q-70 35 -221 35h-39q-68 0 -123 -9t-77 -18l-21 -8z" />
<glyph unicode="&#x2011;" horiz-adv-x="667" d="M4 526q0 74 57 127v4q-57 53 -57 127l4 2q70 -35 221 -34h39q68 0 123 9t76 17l22 8l5 -2q0 -74 -58 -127v-4q57 -53 58 -127l-5 -2q-70 35 -221 35h-39q-68 0 -123 -9t-77 -18l-21 -8z" />
<glyph unicode="&#x2012;" horiz-adv-x="667" d="M4 526q0 74 57 127v4q-57 53 -57 127l4 2q70 -35 221 -34h39q68 0 123 9t76 17l22 8l5 -2q0 -74 -58 -127v-4q57 -53 58 -127l-5 -2q-70 35 -221 35h-39q-68 0 -123 -9t-77 -18l-21 -8z" />
<glyph unicode="&#x2013;" horiz-adv-x="1118" d="M4 526q0 74 57 127v4q-57 53 -57 127l4 2q70 -35 221 -34h494q68 0 123 9t76 17l22 8l4 -2q0 -74 -57 -127v-4q57 -53 57 -127l-4 -2q-70 35 -221 35h-494q-68 0 -123 -9t-77 -18l-21 -8z" />
<glyph unicode="&#x2014;" horiz-adv-x="1705" d="M82 526q0 74 57 127v4q-57 53 -57 127l4 2q70 -35 221 -34h1379q68 0 123 9t75 17l23 8l4 -2q0 -74 -58 -127v-4q57 -53 58 -127l-4 -2q-70 35 -221 35h-1379q-68 0 -123 -9t-78 -18l-20 -8z" />
<glyph unicode="&#x2018;" horiz-adv-x="493" d="M4 1122q0 121 73 215.5t202 130.5l14 -32q-145 -102 -146 -246q14 2 27 2q63 0 104 -41t41 -104.5t-41 -104.5t-104 -41q-72 0 -121 55.5t-49 165.5z" />
<glyph unicode="&#x2019;" horiz-adv-x="493" d="M4 1323q0 66 41.5 105.5t104.5 39.5q72 0 120.5 -55t48.5 -166q0 -121 -72.5 -215t-201.5 -131l-14 33q145 102 145 246q-14 -2 -26 -2q-63 0 -104.5 39.5t-41.5 105.5z" />
<glyph unicode="&#x201a;" horiz-adv-x="485" d="M2 145.5q0 63.5 41 104.5t104 41q72 0 121 -55.5t49 -165.5q0 -121 -72.5 -215.5t-201.5 -130.5l-14 32q145 102 145 246q-14 -2 -27 -2q-63 0 -104 41t-41 104.5z" />
<glyph unicode="&#x201c;" horiz-adv-x="1705" d="M82 1122q0 121 72.5 215.5t201.5 130.5l15 -32q-145 -102 -146 -246q14 2 27 2q63 0 104 -41t41 -104.5t-41 -104.5t-104 -41q-72 0 -121 55.5t-49 165.5zM436 1122q0 121 73 215.5t202 130.5l14 -32q-145 -102 -145 -246q14 2 26 2q66 0 106 -41t40 -104.5t-40 -104.5 t-106 -41q-72 0 -121 55.5t-49 165.5z" />
<glyph unicode="&#x201d;" horiz-adv-x="1705" d="M82 1323q0 66 41 105.5t104 39.5q72 0 121 -55t49 -166q0 -121 -72.5 -215t-201.5 -131l-14 33q145 102 145 246q-14 -2 -27 -2q-63 0 -104 39.5t-41 105.5zM436 1323q0 66 40 105.5t106 39.5q72 0 121 -55t49 -166q0 -121 -73 -215t-202 -131l-14 33q145 102 145 246 q-14 -2 -26 -2q-66 0 -106 39.5t-40 105.5z" />
<glyph unicode="&#x201e;" horiz-adv-x="1705" d="M82 145.5q0 63.5 41 104.5t104 41q72 0 121 -55.5t49 -165.5q0 -121 -72.5 -215.5t-201.5 -130.5l-14 32q145 102 145 246q-14 -2 -27 -2q-63 0 -104 41t-41 104.5zM436 145.5q0 63.5 40 104.5t106 41q72 0 121 -55.5t49 -165.5q0 -121 -73 -215.5t-202 -130.5l-14 32 q145 102 145 246q-14 -2 -26 -2q-66 0 -106 41t-40 104.5z" />
<glyph unicode="&#x2022;" horiz-adv-x="1705" d="M102 706.5q0 102.5 73 175t175.5 72.5t175 -72.5t72.5 -175t-72.5 -175t-175 -73t-176.5 71.5q-72 74 -72 176.5z" />
<glyph unicode="&#x2026;" horiz-adv-x="1228" d="M2 135q0 55 35 94t84 39t84 -39t35 -94t-35 -93t-84 -38t-84 38t-35 93zM412 135q0 55 34.5 94t83.5 39t84 -39t35 -94t-34.5 -93t-84.5 -38q-49 0 -83.5 38t-34.5 93zM821 135q0 55 35 94t84 39t84 -39t35 -94t-35 -93t-84 -38t-84 38t-35 93z" />
<glyph unicode="&#x202f;" horiz-adv-x="376" />
<glyph unicode="&#x2039;" horiz-adv-x="647" d="M0 461v6l422 461l59 -41l-200 -424l200 -422l-59 -41z" />
<glyph unicode="&#x203a;" horiz-adv-x="647" d="M0 41l201 422l-201 424l59 41l422 -461v-6l-422 -461z" />
<glyph unicode="&#x205f;" horiz-adv-x="470" />
<glyph unicode="&#x20ac;" horiz-adv-x="1705" d="M20 518q0 41 37 72v4q-37 31 -37 72l5 2q70 -27 200 -27v131q-57 0 -107 -7t-73 -13l-20 -7l-5 3q0 41 37 71v4q-37 31 -37 72l5 2q70 -27 200 -27v4q0 256 116 400.5t316 144.5q78 0 167 -26.5t108 -26.5q72 0 72 66q0 10 -7 24l7 4q37 -16 64.5 -59t27.5 -88 q0 -78 -62 -107v-2q23 -41 23 -82q0 -74 -51.5 -128t-108.5 -54l-2 8q35 47 35 111q0 72 -56.5 123t-154.5 51q-266 0 -266 -359v-4h135q68 0 123 7.5t75 13.5l23 6l4 -2q0 -41 -37 -72v-4q37 -31 37 -71l-4 -3q-70 27 -221 27h-135v-131h135q68 0 123 7t75 14l23 6l4 -2 q0 -41 -37 -72v-4q37 -31 37 -72l-4 -2q-69 27 -221 27h-135v-4q0 -358 266 -359q98 0 154.5 51.5t56.5 122.5q0 63 -35 111l2 8q57 0 108.5 -54t51.5 -128q0 -41 -23 -82v-2q61 -29 62 -107q0 -45 -28 -88t-64 -59l-7 4q6 14 7 25q0 66 -72 65q-18 0 -107.5 -26.5 t-167.5 -26.5q-201 0 -316.5 144.5t-115.5 400.5v4q-57 0 -107 -7.5t-73 -13.5l-20 -6z" />
<glyph unicode="&#x2122;" horiz-adv-x="1857" d="M82 1364q0 59 61 82l2 -2q-2 -10 -2 -23q0 -41 52 -41q18 0 73.5 16.5t96.5 16.5q57 0 100 -43h2q43 43 104 43q41 0 96.5 -16.5t73.5 -16.5q51 0 52 41q0 8 -7 23l7 2q59 -25 59 -82q0 -49 -37 -70q16 -23 16 -53q0 -37 -27.5 -59.5t-64.5 -22.5l-2 4q18 20 19 51 q0 82 -115 82q-104 0 -104 -116v-64q0 -82 77 -106v-6q-78 -25 -77 -105v-145q0 -76 59 -76q35 0 51 18l4 -2q-10 -39 -36.5 -65.5t-65.5 -26.5q-49 0 -82 39h-2q-29 -39 -82 -39q-37 0 -64.5 26.5t-35.5 65.5l4 2q20 -18 49 -18q63 0 63 76v145q0 80 -82 105v6 q82 25 82 106v64q0 117 -106 116q-117 0 -117 -82q0 -29 21 -51l-2 -4q-37 0 -65 22.5t-28 59.5q0 33 13 53q-33 25 -33 70zM885 1321q53 100 170 100q94 0 145 -64.5t115 -221.5l53 -129h2l53 129q63 158 116.5 222t146.5 64q115 0 167 -100l-2 -4q-16 18 -55 18 q-31 0 -53.5 -18.5t-22.5 -54.5v-146q0 -82 78 -106v-6q-78 -25 -78 -105v-145q0 -76 62 -76q33 0 49 18l4 -2q-8 -39 -34.5 -65.5t-63.5 -26.5q-51 0 -84 39h-2q-29 -39 -82 -39q-37 0 -65.5 26.5t-35.5 65.5l5 2q14 -18 49 -18q61 0 61 76v442h-2l-201 -459h-20l-203 459 h-2v-442q0 -76 62 -76q33 0 49 18l6 -2q-8 -39 -36 -65.5t-65 -26.5q-51 0 -84 39h-2q-29 -39 -81 -39q-37 0 -65 26.5t-34 65.5l2 2q20 -18 51 -18q61 0 62 76v145q0 80 -80 105v6q80 25 80 106v146q0 37 -22.5 55t-53.5 18q-35 0 -57 -18z" />
<glyph unicode="&#x25fc;" horiz-adv-x="1228" d="M0 0v1229h1229v-1229h-1229z" />
<glyph unicode="&#xfb01;" horiz-adv-x="3411" d="M1124 895q0 231 163 394t394.5 163t394 -163t162.5 -394q0 -137 -62 -256t-167 -197v-168h-63v56h-21v-56h-82v56h-20v-56h-82v56h-19v-56h-84v56h-20v-56h-82v56h-20v-56h-82v56h-21v-56h-59v168q-106 76 -168 196t-62 257zM1284 754q0 -72 48 -121t120 -49t122 49 t50 121l-172 170q-70 0 -119 -50t-49 -120zM1354 256h59v-55h21v55h82v-55h20v55h82v-55h20v55h84v-55h19v55h82v-55h20v55h82v-55h21v55h63q0 -129 -91 -192.5t-236.5 -63.5t-236.5 63.5t-91 192.5zM1458 1079l223 -225l226 225l-226 224zM1479 1079l202 203l205 -203 l-205 -205zM1575 446h213l-107 203zM1614 1157l22 -20l23 22v-162h-43v-30h129v30h-43v222h-27zM1739 754q0 -72 50 -121t121.5 -49t120 49t48.5 121q0 70 -49.5 120t-118.5 50zM1743 1051l10 -11l70 70l-13 10zM1743 1103.5q0 -16.5 16.5 -16.5t16 16.5t-16.5 16.5 t-16 -16.5zM1788 1056.5q0 -16.5 16.5 -16.5t16 16.5t-16.5 16.5t-16 -16.5z" />
</font>
</defs>
</svg>
